Статистика раздачи
Размер:  4,12 GB   |    Зарегистрирован:  3 месяца 12 дней   |    Скачан:  0 раз

Полного источника не было: Никогда

 
   
 
 

Crazy ®

Пол:
Не указан
Стаж:
3 месяца 12 дней
Сообщений:
363

Плесень
Страна: Россия
Жанр: документальный
Год выпуска: 2008
Продолжительность: 01:39:10
Перевод: Не требуется
Субтитры: нет
Оригинальная аудиодорожка: русская
Режиссер: Дмитрий Васильев
В ролях: Наталья Новикова, Ольга Марфенина, Светлана Чубатова, Алексей Тренин, Александра Бужилова, Перл Лаперла, Артуро Касадевал, Франсуаза Дромер, Жан-Поль Латже, Адин Штейнзальц
Текст читает: Сергей Чонишвили
Описание: Плесень появилась на Земле 200 миллионов лет назад. Она убивает и спасает от смерти. Ее называют «хлебом дьявола» и «плевком бога». Она сказочно красива, но вызывает отвращение. Она вездесуща и неистребима, и сопровождает человека от рождения до смерти. Возможно, именно она является хранительницей жизни на Земле, но способна превратиться в «чуму XXI века».
И мы даже не предполагаем, какие древние тайны и скрытые силы таит в себе эта проклятая и благословенная… плесень! Мы сталкиваемся с ней постоянно, но либо не замечаем, либо избавляемся от нее. Человек слишком самонадеянно считает себя хозяином на Земле, на самом деле мир принадлежит плесени. И если она захочет вытеснить человека из своей зоны обитания, она это сделает.
Меню: нет
Тип релиза: DVD5
Контейнер: DVD-Video
Видео: PAL 4:3 (720x576(0.541)) MPEG Video, 25,000 кадр/сек, 5604 Кбит/сек
Аудио: Russian (MPEG Audio, 2 ch) 224 Кбит/сек, 48.0 КГц

Доп. информация

В эфире Первого канала 1 февраля состоится премьера документального фильма «Плесень».
Нетрудно догадаться – он покажет «подноготную» самой распространенной и самой древней на Земле части живой природы. Что это - восхваление или страшилка? Сняли фильм создатели сенсационных проектов «Осторожно, еда!» и «Великая тайна воды», получивших награды и «почетные звания», в том числе и «ТЭФИ-2006».
На экране появятся радующие глаз кадры: яркие, разнообразные по цвету колонии плесневых грибков. Кажется, что плохого в этой живой субстанции? Издавна считалось, что плесень безвредна для людей и даже в чем-то полезна. Но в фильме утверждается: как радиация и тяжелые металлы незримо воздействуют на здоровье человека, так и плесневые грибки губят их здоровье и жилища.
Человечество самонадеянно думает, что мир издавна принадлежит нам, разумным и всемогущим. Это не так — плесень (простонародное название грибков) появилась гораздо раньше человека, около 200 миллионов лет назад. Она приспособилась ко всему, даже к тому, что может угрожать живым существам. Переплетение тонких нитей «грибницы» почти полностью повторяет рисунок кровеносной и нервной систем живых существ, К тому же плесень - единственный из простейших организмов, способный размножаться половым путем, она делится на разнополых особей. Даже если случится катастрофа и мир погибнет, плесень благополучно выживет — рассказывает консультант фильма, известный микробиолог, доктор биологических наук Светлана Чубатова. — Впервые кинематографисты так объемно заговорили о большом разделе биологии. Мы рады, что благодаря фильму наши микробиологические разработки станут известны широкой публике. Плесень. Чем опасна плесень? Плесень черная и белая
Выдающиеся ученые — иммунологи, микробиологи, генетики, химики из университетов и научных институтов России, США, Великобритании, Франции приняли участие в документальном фильме. Свое слово сказали священнослужители, мастера — изготовители сыров, виноделы, космонавты.

MediaInfo

Общее
Полное имя : PLESEN`\VIDEO_TS\VTS_01_1.VOB
Формат : MPEG-PS
Размер файла : 1024 Мбайт
Продолжительность : 24 м. 2 с.
Режим общего битрейта : Постоянный
Общий поток : 5954 Кбит/сек
Видео
Идентификатор : 224 (0xE0)
Формат : MPEG Video
Версия формата : Version 2
Профиль формата : Main@Main
Настройки формата : CustomMatrix / BVOP
Параметр BVOP формата : Да
Параметр матрицы формата : Выборочная
Параметр GOP формата : M=3, N=15
Структура изображения : Frame
Продолжительность : 24 м. 2 с.
Вид битрейта : Постоянный
Битрейт : 5604 Кбит/сек
Ширина : 720 пикселей
Высота : 576 пикселей
Соотношение сторон : 4:3
Частота кадров : 25,000 кадров/сек
Стандарт вещания : PAL
Цветовое пространство : YUV
Субдискретизация насыщенности : 4:2:0
Битовая глубина : 8 бит
Тип развёртки : Чересстрочная
Порядок развёртки : Верхнее поле первое
Метод сжатия : С потерями
Бит/(Пиксели*Кадры) : 0.541
Временной код первого кадра : 00:00:00:00
Оригинал временного кода : Group of pictures header
GOP, открыто/закрыто : Открыто
GOP, открыто/закрыто на первом кадре : Закрыто
Размер потока : 965 Мбайт (94%)
Аудио
Идентификатор : 192 (0xC0)
Формат : MPEG Audio
Версия формата : Version 1
Профиль формата : Layer 2
Продолжительность : 24 м. 2 с.
Вид битрейта : Постоянный
Битрейт : 224 Кбит/сек
Каналы : 2 канала
Частота : 48,0 КГц
Частота кадров : 41,667 кадра/сек (1152 SPF)
Метод сжатия : С потерями
Размер потока : 38,5 Мбайт (4%)

Скриншоты

[cybertorrent.ru].t952.torrent 
Торрент: Зарегистрирован [ 2018-02-15 22:25 ] · 3CEA8F81FAE13526CC01D499C9928DA9A88707C5

Скачать .torrent

Скачать

11 KB

Статус: проверено
Скачан: 0 раз
Размер: 4,12 GB
Профиль [ЛС]
Показать сообщения:    

Текущее время: 28-Май 08:11

Часовой пояс: UTC ± 0



Вы не можете начинать темы
Вы не можете отвечать на сообщения
Вы не можете редактировать свои сообщения
Вы не можете удалять свои сообщения
Вы не можете голосовать в опросах
Вы не можете прикреплять файлы к сообщениям
Вы можете скачивать файлы