Статистика раздачи
Размер:  3,48 GB   |    Зарегистрирован:  3 месяца 9 дней   |    Скачан:  0 раз

Полного источника не было: Никогда

 
   
 
 

dazbaz ®

Пол:
Не указан
Стаж:
3 месяца 9 дней
Сообщений:
216

Вероника не придёт
Страна: Россия
Жанр: драма
Год выпуска: 2008
Продолжительность: 01:39:08
Перевод: Не требуется
Субтитры: нет
Оригинальная аудиодорожка: русская
Режиссер: Элина Суни
В ролях: Римма Маркова, Мария Скосырева, Прохор Дубравин, Владимир Шульга, Кирилл Болтаев, Алиса Гребенщикова, Сергей Варчук, Дмитрий Ратомский, Наталья Защипина, Марина Чуракова, Вера Александрова
Описание: Карьера, успех, благополучие — для нее всего лишь ставка в азартной игре под названием жизнь. Циничная бунтарка, Вероника снова и снова испытывает свою судьбу, не учитывая, что та — опасный соперник. Однажды игра заканчивается поражением: самонадеянная красавица теряет все и сразу. Проигранного уже не вернуть — цветущая женщина, успешная журналистка превращается в отчаявшуюся старуху и попадает в дом престарелых…
Меню: есть, статичное
Тип релиза: DVD5
Контейнер: DVD-Video
Видео: PAL 4:3 (720x576(0.420)) MPEG Video, 25,000 кадр/сек, 4357 Кбит/сек
Аудио: Russian (Dolby AC-3, 2 ch) 256 Кбит/сек, 48.0 КГц

DVDInfo

Title: Veronika.bolshe.ne.pridjot.(1-2.serii.iz.2).2008.DVD-5
Disk size: 3.48 Gb ( 3 653 406,00 KBytes )
DVD Type: DVD-5
Enabled regions: 1,2,3,4,5,6,7,8
VTS_01:
Title Play Length: 01:39:07
Video: PAL 4:3 (720x576) VBR
Audio (1):
Not specified (Dolby AC3, 2 ch)
Subtitles (0)
VTS_02:
Title Play Length: 00:02:19
Video: PAL 4:3 (720x576) VBR
Audio (1):
Not specified (MPEG1, 2 ch)
Subtitles (0)
* Menus Information *
VIDEO_TS Menu
Video:
NTSC 4:3 (720x480) VBR
Auto Pan&Scan, Auto Letterboxed
Language Unit :
Title Menu
VTS_01 Menu
Video:
PAL 4:3 (720x576) VBR
Audio (0)
Language Unit :
Root Menu
VTS_02 Menu
Video:
NTSC 4:3 (720x480) VBR
Auto Pan&Scan, Auto Letterboxed
Audio (0)
Language Unit :
Subpicture Menu
Angle menu

MediaInfo

Общее
Полное имя : Veronika.bolshe.ne.pridjot.(1-2.serii.iz.2).2008.DVD-5\VIDEO_TS\VTS_01_1.VOB
Формат : MPEG-PS
Размер файла : 1024 Мбайт
Продолжительность : 30 м. 24 с.
Режим общего битрейта : Переменный
Общий поток : 4707 Кбит/сек
Видео
Идентификатор : 224 (0xE0)
Формат : MPEG Video
Версия формата : Version 2
Профиль формата : Main@Main
Настройки формата : CustomMatrix / BVOP
Параметр BVOP формата : Да
Параметр матрицы формата : Выборочная
Параметр GOP формата : M=3, N=12
Структура изображения : Frame
Продолжительность : 30 м. 24 с.
Вид битрейта : Переменный
Битрейт : 4357 Кбит/сек
Максимальный битрейт : 9500 Кбит/сек
Ширина : 720 пикселей
Высота : 576 пикселей
Соотношение сторон : 4:3
Частота кадров : 25,000 кадров/сек
Стандарт вещания : PAL
Цветовое пространство : YUV
Субдискретизация насыщенности : 4:2:0
Битовая глубина : 8 бит
Тип развёртки : Чересстрочная
Порядок развёртки : Верхнее поле первое
Метод сжатия : С потерями
Бит/(Пиксели*Кадры) : 0.420
Временной код первого кадра : 00:00:00:00
Оригинал временного кода : Group of pictures header
GOP, открыто/закрыто : Открыто
GOP, открыто/закрыто на первом кадре : Закрыто
Размер потока : 948 Мбайт (93%)
Основные цвета : BT.601 PAL
Характеристики трансфера : BT.470 System B, BT.470 System G
Коэффициенты матрицы : BT.470 System B, BT.470 System G
Аудио
Идентификатор : 189 (0xBD)-128 (0x80)
Формат : AC-3
Формат/Информация : Audio Coding 3
Режим смешивания : DVD-Video
Продолжительность : 30 м. 24 с.
Вид битрейта : Постоянный
Битрейт : 256 Кбит/сек
Каналы : 2 канала
Расположение каналов : Front: L R
Частота : 48,0 КГц
Частота кадров : 31,250 кадров/сек (1536 SPF)
Битовая глубина : 16 бит
Метод сжатия : С потерями
Размер потока : 55,7 Мбайт (5%)
ServiceKind/String : Complete Main

Скриншоты меню

Скриншоты

[cybertorrent.ru].t957.torrent 
Торрент: Зарегистрирован [ 2018-02-15 22:25 ] · 0F8B96D80BCCF2BC838AB8420B4C493F11358926

Скачать .torrent

Скачать

18 KB

Статус: проверено
Скачан: 0 раз
Размер: 3,48 GB
Профиль [ЛС]
Показать сообщения:    

Текущее время: 25-Май 09:01

Часовой пояс: UTC ± 0



Вы не можете начинать темы
Вы не можете отвечать на сообщения
Вы не можете редактировать свои сообщения
Вы не можете удалять свои сообщения
Вы не можете голосовать в опросах
Вы не можете прикреплять файлы к сообщениям
Вы можете скачивать файлы