Статистика раздачи
Размер:  4,1 GB   |    Зарегистрирован:  3 месяца 5 дней   |    Скачан:  0 раз

Полного источника не было: Никогда

 
   
 
 

dazbaz ®

Пол:
Не указан
Стаж:
3 месяца 6 дней
Сообщений:
216

Сюрприз
Страна: Украина
Жанр: мелодрама
Год выпуска: 2008
Продолжительность: 01:35:02
Перевод: Не требуется
Субтитры: нет
Оригинальная аудиодорожка: русская
Режиссер: Олег Гойда
В ролях: Елена Панова, Наталья Антонова, Сергей Юшкевич, Лариса Кадочникова, Ксения Николаева, Артем Ковалевский, Артем Пасынков
Описание: Тринадцатилетний Лёня живет в обычной семье с традиционными бытовыми проблемами и материальными трудностями. Подросток давно мечтает о компьютере, но у его родителей — Ивана и Ирины — нет денег на такую дорогую вещь. Однако к 14-летию Лёню ждёт сюрприз: прямо на улице незнакомая женщина дарит мальчику ноутбук.
Как выясняется позже, дорогой компьютер Лёне подарила его настоящая мать — Зоя. Оставив его в возрасте 10 месяцев, она уехала в Америку с пожилым миллионером. Теперь Зоя — богатая вдова, и хочет вернуть ребёнка, а заодно и бывшего мужа.
Семья Ивана и Ирины рушится на глазах. Иван мечется меж двух огней, а Ира благородно даёт мужу и сыну возможность принять решение самостоятельно. Она даже находит слова для того, чтобы уговорить Лёню уехать в Америку, зная, что там его ждёт лучшее будущее. В финале ждёт сюрприз и её, причём не один…
Меню: есть, статичное, озвученное
Тип релиза: DVD5
Контейнер: DVD-Video
Видео: PAL 16:9 (720x576(0.530)) MPEG Video, 25,000 кадр/сек, 5500 Кбит/сек
Аудио: Russian (Dolby AC-3, 2 ch) 448 Кбит/сек, 48.0 КГц

MediaInfo

Общее
Полное имя : Syrpriz.2008.DVD-5\VIDEO_TS\VTS_05_1.VOB
Формат : MPEG-PS
Размер файла : 1024 Мбайт
Продолжительность : 23 м. 38 с.
Режим общего битрейта : Постоянный
Общий поток : 6054 Кбит/сек
Библиотека кодирования : encoded by TMPGEnc 4.0 XPress Version. 4.6.2.266
Видео
Идентификатор : 224 (0xE0)
Формат : MPEG Video
Версия формата : Version 2
Профиль формата : Main@Main
Настройки формата : CustomMatrix / BVOP
Параметр BVOP формата : Да
Параметр матрицы формата : Выборочная
Параметр GOP формата : M=3, N=15
Продолжительность : 23 м. 38 с.
Вид битрейта : Постоянный
Битрейт : 5500 Кбит/сек
Ширина : 720 пикселей
Высота : 576 пикселей
Соотношение сторон : 16:9
Частота кадров : 25,000 кадров/сек
Стандарт вещания : PAL
Цветовое пространство : YUV
Субдискретизация насыщенности : 4:2:0
Битовая глубина : 8 бит
Тип развёртки : Прогрессивная
Метод сжатия : С потерями
Бит/(Пиксели*Кадры) : 0.530
Временной код первого кадра : 00:00:00:00
Оригинал временного кода : Group of pictures header
GOP, открыто/закрыто : Открыто
GOP, открыто/закрыто на первом кадре : Закрыто
Размер потока : 927 Мбайт (91%)
Библиотека кодирования : TMPGEnc XPress 4.6.2.266
Основные цвета : BT.601 PAL
Характеристики трансфера : BT.470 System B, BT.470 System G
Коэффициенты матрицы : BT.470 System B, BT.470 System G
Аудио
Идентификатор : 189 (0xBD)-128 (0x80)
Формат : AC-3
Формат/Информация : Audio Coding 3
Режим смешивания : DVD-Video
Продолжительность : 23 м. 38 с.
Вид битрейта : Постоянный
Битрейт : 448 Кбит/сек
Каналы : 2 канала
Расположение каналов : Front: L R
Частота : 48,0 КГц
Частота кадров : 31,250 кадров/сек (1536 SPF)
Битовая глубина : 16 бит
Метод сжатия : С потерями
Размер потока : 75,7 Мбайт (7%)
ServiceKind/String : Complete Main

Скриншоты меню

Скриншоты

[cybertorrent.ru].t962.torrent 
Торрент: Зарегистрирован [ 2018-02-15 22:25 ] · 3DA19BD7AC977E158D3F7E689714D708BAEDF342

Скачать .torrent

Скачать

12 KB

Статус: проверено
Скачан: 0 раз
Размер: 4,1 GB
Профиль [ЛС]
Показать сообщения:    

Текущее время: 21-Май 19:01

Часовой пояс: UTC ± 0



Вы не можете начинать темы
Вы не можете отвечать на сообщения
Вы не можете редактировать свои сообщения
Вы не можете удалять свои сообщения
Вы не можете голосовать в опросах
Вы не можете прикреплять файлы к сообщениям
Вы можете скачивать файлы