Сюжет для небольшого рассказа (Сергей Юткевич) [1969, историко-биографический, DVB]

Ответить на тему
Статистика раздачи
Размер:  3,05 GB   |    Зарегистрирован:  1 месяц 1 день   |    Скачан:  0 раз

Полного источника не было: Никогда

   
 
Автор Сообщение

edich ®

Пол: Не указан

Стаж: 2 месяца 13 дней

Сообщений: 84

Создавать темы 24-Апр-2019 16:06

[Цитировать]

Сюжет для небольшого рассказа
Жанр: историко-биографический
Год выпуска: 1969
Продолжительность: 01:21:19
Режиссёр: Сергей Юткевич
В ролях: Николай Гринько, Ия Саввина, Ролан Быков, Александра Панова, Евгений Лебедев, Марина Влади, Юрий Яковлев, Леонид Галлис, Владимир Осенев, Екатерина Васильева, Сергей Кулагин, Евгений Шутов, Виктор Авдюшко, Георгий Тусузов
Описание: Фильм построен на воспоминаниях А.П.Чехова о провальной премьере “Чайки”, о несложившемся счастье с Ликой Мизиновой, о газетах, предрекавших писателю “смерть под забором”...
Доп. информация: запись потока *.ts со спутника Экспресс АМ6, 53° в.д., ремукс в *.mkv программой VideoReDo.
Качество видео: DVB
Формат видео: MKV
Видео: MPEG2 Video, 720(1024)x576 (16:9), 25,000 кадров/сек, 5012 Кбит/сек
Аудио: MPEG Audio, 48,0 КГц, 256 Кбит/сек, 2 канала

MediaInfo

Общее
Уникальный идентификатор : 196227294749664332833709497046392075516 (0x93A00095D83ADAAC2CA5F6AE3F4774FC)
Полное имя : D:\Torrent\СЮЖЕТ ДЛЯ НЕБОЛЬШОГО РАССКАЗА 16Х9 (Kultura 53).mkv
Формат : Matroska
Версия формата : Version 2
Размер файла : 3,05 Гбайт
Продолжительность : 1 ч. 21 м.
Режим общего битрейта : Переменный
Общий поток : 5375 Кбит/сек
Программа кодирования : Lavf52.64.2
Библиотека кодирования : Lavf52.64.2
Видео
Идентификатор : 1
Формат : MPEG Video
Версия формата : Version 2
Профиль формата : Main@Main
Параметр BVOP формата : Да
Параметр матрицы формата : Выборочная
Параметр GOP формата : M=3, N=15
Структура изображения : Frame
Идентификатор кодека : V_MPEG2
Идентификатор кодека/Информация : MPEG 1 or 2 Video
Продолжительность : 1 ч. 21 м.
Вид битрейта : Переменный
Битрейт : 5012 Кбит/сек
Максимальный битрейт : 15,0 Мбит/сек
Ширина : 720 пикселей
Высота : 576 пикселей
Соотношение сторон : 16:9
Соотношение сторон в оригинале : 16:9
Режим частоты кадров : Постоянный
Частота кадров : 25,000 кадров/сек
Стандарт вещания : PAL
Цветовое пространство : YUV
Субдискретизация насыщенности : 4:2:0
Битовая глубина : 8 бит
Тип развёртки : Чересстрочная
Порядок развёртки : Верхнее поле первое
Метод сжатия : С потерями
Бит/(Пиксели*Кадры) : 0.483
Размер потока : 2,85 Гбайт (93%)
Default : Да
Forced : Нет
Аудио
Идентификатор : 2
Формат : MPEG Audio
Версия формата : Version 1
Профиль формата : Layer 2
Идентификатор кодека : A_MPEG/L2
Идентификатор кодека/Подсказка : MP2
Продолжительность : 1 ч. 21 м.
Вид битрейта : Постоянный
Битрейт : 256 Кбит/сек
Каналы : 2 канала
Частота : 48,0 КГц
Метод сжатия : С потерями
Задержка видео : 2 мс.
Размер потока : 149 Мбайт (5%)
Язык : English
Default : Да
Forced : Нет
[cybertorrent.ru].t2269.torrent 
Торрент: Зарегистрирован [ 2019-04-24 16:06 ] · B7854EEE0F3084532E3DEF23B11BA86A180DF432

Скачать .torrent

Скачать

16 KB

Статус: проверено
Скачан: 0 раз
Размер: 3,05 GB
terms.php
[Профиль] [ЛС]
Показать сообщения:    
Ответить на тему

Текущее время: 26-Май 01:08

Часовой пояс: UTC ± 0



Вы не можете начинать темы
Вы не можете отвечать на сообщения
Вы не можете редактировать свои сообщения
Вы не можете удалять свои сообщения
Вы не можете голосовать в опросах
Вы не можете прикреплять файлы к сообщениям
Вы можете скачивать файлы