Приключения в Греции / Остров тайн / Lomasankarit (Таави Вартиа / Taavi Vartia) [2014, Финляндия, Греция, приключения, семейный, HDRip] DVO (ETV+) + Original Fin

Ответить на тему
Статистика раздачи
Размер:  1,47 GB   |    Зарегистрирован:  1 месяц 19 дней   |    Скачан:  0 раз

Полного источника не было: Никогда

   
 
Автор Сообщение

cyber ®

Пол: Не указан

Стаж: 3 месяца 3 дня

Сообщений: 90

Создавать темы 26-Апр-2019 16:37

[Цитировать]

Приключения в Греции / Остров тайн / Lomasankarit
Страна: Финляндия, Греция
Жанр: приключения, семейный
Год выпуска: 2014
Продолжительность: 01:26:45
Перевод: Профессиональный (двухголосый закадровый) ETV+
Субтитры: нет
Оригинальная аудиодорожка: финский
Режиссер: Таави Вартиа / Taavi Vartia
В ролях: Яннис Станкоглу, Герасимос Скиадаресис, Лаура Малмиваара, Орфеас Августидис, Мария Лайна

Описание: Тони с отцом, мачехой и двумя сводными братьями, его ровесником Алекси и младшим Веети, отправляется на отдых в солнечную Грецию. Но отдыха, кажется, не будет: братьям предстоит сделать все, чтобы вызволить местную девушку Адриану из рук похитителей и попытаться стать единой семьей.
Доп. информация: Перевод - Диана Воронина. Озвучание - Татьяна Космынина и Евгений Моисеенко.

Кинопоиск - IMDb
Sample
Качество видео: HDRip
Формат видео: AVI
Видео: 720x304 (2.37:1), 23.976 fps, XviD build 73 ~1763 kbps avg, 0.34 bit/pixel
Аудио #1: Russian (AC3, 2 ch, 192 kbps, 16 bits, 48.0 KHz) - DVO
Аудио #2: Finnish (AC3, 6 ch, 448 kbps, 16 bits, 48.0 KHz) - оригинал

MediaInfo

General
Complete name : D:\Lomasankarit 2014.avi
Format : AVI
Format/Info : Audio Video Interleave
File size : 1.47 GiB
Duration : 1 h 26 min
Overall bit rate : 2 419 kb/s
Writing application : VirtualDubMod 1.5.10.3 | www.virtualdub-fr.org || (build 2550/release)
Writing library : VirtualDubMod build 2550/release
Video
ID : 0
Format : MPEG-4 Visual
Format profile : Advanced Simple@L5
Format settings : BVOP1
Format settings, BVOP : 1
Format settings, QPel : No
Format settings, GMC : No warppoints
Format settings, Matrix : Default (MPEG)
Codec ID : XVID
Codec ID/Hint : XviD
Duration : 1 h 26 min
Bit rate : 1 765 kb/s
Width : 720 pixels
Height : 304 pixels
Display aspect ratio : 2.35:1
Frame rate : 23.976 (24000/1001) FPS
Color space : YUV
Chroma subsampling : 4:2:0
Bit depth : 8 bits
Scan type : Progressive
Compression mode : Lossy
Bits/(Pixel*Frame) : 0.336
Stream size : 1.07 GiB (73%)
Writing library : XviD 73
Audio #1
ID : 1
Format : AC-3
Format/Info : Audio Coding 3
Codec ID : 2000
Duration : 1 h 26 min
Bit rate mode : Constant
Bit rate : 192 kb/s
Channel(s) : 2 channels
Channel positions : Front: L R
Sampling rate : 48.0 kHz
Frame rate : 31.250 FPS (1536 SPF)
Bit depth : 16 bits
Compression mode : Lossy
Stream size : 119 MiB (8%)
Alignment : Split accross interleaves
Interleave, duration : 42 ms (1.00 video frame)
Interleave, preload duratio : 500 ms
Service kind : Complete Main
Audio #2
ID : 2
Format : AC-3
Format/Info : Audio Coding 3
Codec ID : 2000
Duration : 1 h 26 min
Bit rate mode : Constant
Bit rate : 448 kb/s
Channel(s) : 6 channels
Channel positions : Front: L C R, Side: L R, LFE
Sampling rate : 48.0 kHz
Frame rate : 31.250 FPS (1536 SPF)
Bit depth : 16 bits
Compression mode : Lossy
Stream size : 278 MiB (19%)
Alignment : Split accross interleaves
Interleave, duration : 42 ms (1.00 video frame)
Interleave, preload duratio : 500 ms
Service kind : Complete Main

Скриншоты



[cybertorrent.ru].t2307.torrent 
Торрент: Зарегистрирован [ 2019-04-26 16:37 ] · 129309E4FE263FAAD64DF4448C691AEF9B6F0B73

Скачать .torrent

Скачать

15 KB

Статус: проверено
Скачан: 0 раз
Размер: 1,47 GB
terms.php
[Профиль] [ЛС]
Показать сообщения:    
Ответить на тему

Текущее время: 16-Июн 02:33

Часовой пояс: UTC ± 0



Вы не можете начинать темы
Вы не можете отвечать на сообщения
Вы не можете редактировать свои сообщения
Вы не можете удалять свои сообщения
Вы не можете голосовать в опросах
Вы не можете прикреплять файлы к сообщениям
Вы можете скачивать файлы