А пароходы гудят и уходят... (Рубен Мурадян) [1972, драма, DVB, AVC]

Ответить на тему
Статистика раздачи
Размер:  1,14 GB   |    Зарегистрирован:  3 месяца 30 дней   |    Скачан:  0 раз

Полного источника не было: Никогда

   
 
Автор Сообщение

edich ®

Пол: Не указан

Стаж: 4 месяца 5 дней

Сообщений: 97

Создавать темы 18-Мар-2019 10:00

[Цитировать]

А пароходы гудят и уходят...
Жанр: драма
Год выпуска: 1972
Продолжительность: 01:06:06
Режиссёр: Рубен Мурадян
В ролях: Сергей Проханов, Галина Комарова, Светлана Жгун, Валентин Зубков, Антанас Габренас, Сергей Гурзо мл., Михаил Иванов
Описание: Производственная драма, снятая в Волгограде и на теплоходе на Волге. Герой Сергея Проханова ("Усатый нянь"), несмотря на отсутствие опыта, одержим желанием стать рулевым на речном теплоходе.
Доп. информация: Запись потока *.ts со спутника EUTELSAT 36A/B, 36° в.д., удаление рекламы программой VideoReDo.
Качество видео: DVB
Формат видео: TS
Видео: Advanced Video Codec, 720(768)x576 (4:3), 25,000 кадров/сек, 2145 Кбит/сек
Аудио: MPEG Audio, 48,0 КГц, 192 Кбит/сек, 2 канала

MediaInfo

Общее
Идентификатор : 1 (0x1)
Полное имя : E:\Torrent\А ПАРОХОДЫ ГУДЯТ И УХОДЯТ (Ностальгия).ts
Формат : MPEG-TS
Размер файла : 1,14 Гбайт
Продолжительность : 1 ч. 6 м.
Режим общего битрейта : Переменный
Общий поток : 2460 Кбит/сек
Видео
Идентификатор : 217 (0xD9)
Идентификатор меню : 1 (0x1)
Формат : AVC
Формат/Информация : Advanced Video Codec
Профиль формата : High@L3
Параметр CABAC формата : Да
Параметр ReFrames формата : 4 кадра
Параметр GOP формата : M=4, N=28
Идентификатор кодека : 27
Продолжительность : 1 ч. 6 м.
Битрейт : 2145 Кбит/сек
Ширина : 720 пикселей
Высота : 576 пикселей
Соотношение сторон : 4:3
Частота кадров : 25,000 кадров/сек
Стандарт вещания : Component
Цветовое пространство : YUV
Субдискретизация насыщенности : 4:2:0
Битовая глубина : 8 бит
Тип развёртки : Чересстрочная
Метод сохранения типа развёртки : Раздельные поля
Порядок развёртки : Верхнее поле первое
Бит/(Пиксели*Кадры) : 0.207
Размер потока : 1014 Мбайт (87%)
Цветовой диапазон : Limited
Основные цвета : BT.601 PAL
Характеристики трансфера : BT.470 System B, BT.470 System G
Коэффициенты матрицы : BT.601
Аудио
Идентификатор : 317 (0x13D)
Идентификатор меню : 1 (0x1)
Формат : MPEG Audio
Версия формата : Version 1
Профиль формата : Layer 2
Идентификатор кодека : 3
Продолжительность : 1 ч. 6 м.
Вид битрейта : Постоянный
Битрейт : 192 Кбит/сек
Каналы : 2 канала
Частота : 48,0 КГц
Метод сжатия : С потерями
Размер потока : 90,8 Мбайт (8%)
Язык : Russian
[cybertorrent.ru].t236.torrent 
Торрент: Зарегистрирован [ 2019-03-18 10:04 ] · BB176A6DAD4FCE718732190A7C82D8EC93F3D19F

Скачать .torrent

Скачать

12 KB

Статус: проверено
Скачан: 0 раз
Размер: 1,14 GB
terms.php
[Профиль] [ЛС]
Показать сообщения:    
Ответить на тему

Текущее время: 17-Июл 18:22

Часовой пояс: UTC ± 0



Вы не можете начинать темы
Вы не можете отвечать на сообщения
Вы не можете редактировать свои сообщения
Вы не можете удалять свои сообщения
Вы не можете голосовать в опросах
Вы не можете прикреплять файлы к сообщениям
Вы можете скачивать файлы