Экскалибур / Excalibur (Джон Бурман / John Boorman) [1981, США, Великобритания, фэнтези, приключения, BDRip-AVC] 3X AVO (Володарский, Иванов, Белов)

Ответить на тему
Статистика раздачи
Размер:  2,86 GB   |    Зарегистрирован:  1 месяц 16 дней   |    Скачан:  0 раз

Полного источника не было: Никогда

   
 
Автор Сообщение

serzh ®

Пол: Не указан

Стаж: 3 месяца 7 дней

Сообщений: 274

Создавать темы 03-Май-2019 15:36

[Цитировать]

Экскалибур / Excalibur
Страна: США, Великобритания
Жанр: фэнтези, приключения
Год выпуска: 1981
Продолжительность: 02:20:47
Перевод 1: Авторский (одноголосый закадровый) Леонида Володарского
Перевод 2: Авторский (одноголосый закадровый) Михаила Иванова
Перевод 3: Авторский (одноголосый закадровый) Сергея Белова
Субтитры: нет
Оригинальная аудиодорожка: нет
Режиссер: Джон Бурман /John Boorman/
В ролях: Найджел Терри /Nigel Terry/, Хелен Миррен /Helen Mirren/, Корин Редгрэйв /Corin Redgrave/, Шери Лунги /Cherie Lunghi/, Никол Уильямсон /Nicol Williamson/, Николас Клэй /Nicholas Clay/, Гэбриэл Бирн /Gabriel Byrne/, Лайам Нисон /Liam Neeson/
Рецензия Михаила Иванова: "Экскалибур" - это изысканное, почти идеальное сочетание боевика, романтики, фантазии и философии. Превосходно снятый и сыгранный фильм. В основу положена легенда о короле Артуре. - для сценария была взята классическая версия Томаса Мэлори "Morte d Arthur".
Для натурных съемок были выбраны застывшие во времени живописнейшие пейзажи Ирландии. Мерлин (Никол Уильямсон) в этой постановке - то колдун, то мошенник, то философ, но кем бы он ни был - он всегда интересен. Клубок страсти и предательства, который привел Артура к прозрению, помещение Экскалибура в камень и восхождение Артура в Камелот, после того как он извлек меч, - все это сопровождается беспокойством и мрачными деяниями. Может быть, слегка затянуты поиски Святого Грааля, но это единственный и спорный недостаток. Номинация на "Оскар" за лучшую операторскую работу (1981). Премия за особые художественные достоинства в Канне (1981).
Доп. информация: исходник от порошков; небритый Володарский от sasikainen; Иванов не помню откуда; Белова оцифровал и подготовил karlll
Качество видео: BDRip-AVC ~сэмпл~
Формат видео: MKV
Видео: MPEG4 Video (H264) 1152x648 23.976fps 2332kbps
Аудио 1: Dolby AC3 48KHz 2ch 192kbps - В
Аудио 2: Dolby AC3 48KHz 2ch 192kbps - И
Аудио 3: Dolby AC3 48KHz 2ch 192kbps - Б

MediaInfo

Format : Matroska
Format version : Version 2
File size : 2.86 GiB
Duration : 2 h 20 min
Overall bit rate : 2 910 kb/s
Movie name : EXCALIBUR_1981_BDRIP_ВОЛОДАРСКИЙ_ИВАНОВ_БЕЛОВ_KBC
Encoded date : UTC 2019-05-02 17:57:50
Writing application : mkvmerge v6.9.1 ('Blue Panther') 32bit built on Apr 18 2014 18:15:44
Writing library : libebml v1.3.0 + libmatroska v1.4.1
Video
ID : 1
Format : AVC
Format/Info : Advanced Video Codec
Format profile : High@L3.1
Format settings : CABAC / 7 Ref Frames
Format settings, CABAC : Yes
Format settings, ReFrames : 7 frames
Codec ID : V_MPEG4/ISO/AVC
Duration : 2 h 20 min
Bit rate : 2 332 kb/s
Width : 1 152 pixels
Height : 648 pixels
Display aspect ratio : 16:9
Frame rate mode : Constant
Frame rate : 23.976 (24000/1001) FPS
Color space : YUV
Chroma subsampling : 4:2:0
Bit depth : 8 bits
Scan type : Progressive
Bits/(Pixel*Frame) : 0.130
Stream size : 2.24 GiB (78%)
Title : Excalibur_1981
Writing library : x264 core 152 r2851kMod ba24899
Encoding settings : cabac=1 / ref=7 / deblock=1:-1:-1 / analyse=0x3:0x113 / me=umh / subme=9 / psy=1 / fade_compensate=0.00 / psy_rd=1.00:0.20 / mixed_ref=1 / me_range=24 / chroma_me=1 / trellis=2 / 8x8dct=1 / cqm=0 / deadzone=21,11 / fast_pskip=0 / chroma_qp_offset=-3 / threads=6 / lookahead_threads=1 / sliced_threads=0 / nr=0 / decimate=0 / interlaced=0 / bluray_compat=0 / constrained_intra=0 / bframes=7 / b_pyramid=2 / b_adapt=2 / b_bias=0 / direct=3 / weightb=1 / open_gop=0 / weightp=2 / keyint=250 / keyint_min=23 / scenecut=40 / intra_refresh=0 / rc_lookahead=50 / rc=2pass / mbtree=1 / bitrate=2332 / ratetol=1.0 / qcomp=0.60 / qpmin=0 / qpmax=69 / qpstep=4 / cplxblur=20.0 / qblur=0.5 / vbv_maxrate=14000 / vbv_bufsize=14000 / nal_hrd=none / filler=0 / ip_ratio=1.40 / aq=1:1.00
Language : English
Default : Yes
Forced : No
Audio #1
ID : 2
Format : AC-3
Format/Info : Audio Coding 3
Commercial name : Dolby Digital
Codec ID : A_AC3
Duration : 2 h 20 min
Bit rate mode : Constant
Bit rate : 192 kb/s
Channel(s) : 2 channels
Channel layout : L R
Sampling rate : 48.0 kHz
Frame rate : 31.250 FPS (1536 SPF)
Bit depth : 16 bits
Compression mode : Lossy
Stream size : 193 MiB (7%)
Title : Володарский
Language : Russian
Service kind : Complete Main
Default : Yes
Forced : No
Audio #2
ID : 3
Format : AC-3
Format/Info : Audio Coding 3
Commercial name : Dolby Digital
Codec ID : A_AC3
Duration : 2 h 20 min
Bit rate mode : Constant
Bit rate : 192 kb/s
Channel(s) : 2 channels
Channel layout : L R
Sampling rate : 48.0 kHz
Frame rate : 31.250 FPS (1536 SPF)
Bit depth : 16 bits
Compression mode : Lossy
Stream size : 193 MiB (7%)
Title : Иванов
Language : Russian
Service kind : Complete Main
Default : No
Forced : No
Audio #3
ID : 4
Format : AC-3
Format/Info : Audio Coding 3
Commercial name : Dolby Digital
Codec ID : A_AC3
Duration : 2 h 20 min
Bit rate mode : Constant
Bit rate : 192 kb/s
Channel(s) : 2 channels
Channel layout : L R
Sampling rate : 48.0 kHz
Frame rate : 31.250 FPS (1536 SPF)
Bit depth : 16 bits
Compression mode : Lossy
Stream size : 193 MiB (7%)
Title : Белов
Language : Russian
Service kind : Complete Main
Default : No
Forced : No

Скриншоты

ps

переводы собрал и оформил раздачу на майских выходных в деревне К, огромная благодарность А и Е за гуманитарную и продовольственную поддержку...
[cybertorrent.ru].t2480.torrent 
Торрент: Зарегистрирован [ 2019-05-03 15:36 ] · 473CBD28C5C1B5A6796D43A326BCCC7EF49C6AB9

Скачать .torrent

Скачать

15 KB

Статус: проверено
Скачан: 0 раз
Размер: 2,86 GB
terms.php
[Профиль] [ЛС]
Показать сообщения:    
Ответить на тему

Текущее время: 19-Июн 22:48

Часовой пояс: UTC ± 0



Вы не можете начинать темы
Вы не можете отвечать на сообщения
Вы не можете редактировать свои сообщения
Вы не можете удалять свои сообщения
Вы не можете голосовать в опросах
Вы не можете прикреплять файлы к сообщениям
Вы можете скачивать файлы