Взломщик (Валерий Огородников) [1987, Драма, VHSRip]

Ответить на тему
Статистика раздачи
Размер:  3,67 GB   |    Зарегистрирован:  6 месяцев   |    Скачан:  0 раз

Полного источника не было: Никогда

   
 
Автор Сообщение

edich ®

Пол: Не указан

Стаж: 6 месяцев 6 дней

Сообщений: 173

Создавать темы 18-Мар-2019 09:59

[Цитировать]

Взломщик
Издание без рассинхрона звуковой дорожки и видеоряда
Издатель VHS, каталожный номер: Студия 48 часов, ВС48-137
Год издания кассеты: 2002-Жанр: Драма
Киностудия, год выхода фильма: Ленфильм, 1987
Продолжительность видеозаписи: 1:23:26-Режиссёр: Валерий Огородников-Роли и исполнители:
Семён Лаушкин - Олег Елыкомов
Константин Лаушкин - Константин Кинчев
Юрий Викторович Лаушкин, отец - Юрий Цапник
Светлана Ивановна, подруга отца - Светлана Гайтан
Ангелина - Полина Петренко
Руководитель духового оркестра - Михаил Парфёнов
Хохмач - Пётр Семак
В эпизодах: Олег Гаркуша, Олег Ковалов, Пётр Самойлов, Павел Кондратенко, Михаил Нефёдов, Андрей Шаталин, Леонид Фёдоров, Дмитрий Озерский, Виктор Бондарик, Игорь Черидник, Сергей Рогожин, Андрей Панов, Алексей Вишня и другие-Аннотация с кассеты: После смерти матери тринадцатилетний Семён берёт на себя ответственность за семью. Он мечтает, чтобы отец перестал пить, женился и был бы счастлив. Подросток верит в талант старшего брата и оберегает его от неверных шагов.-Семпл 1 ~ 71,8 МБ
Семпл 2 ~ 43,1 МБ
Сканы издания VHS (Студия 48 часов, ВС48-137)-Качество видео: VHSRip
Формат видео: MPEG-PS
Автор оцифровки: ley-barmaley
Видео: MPEG2 / 720x576 (4:3) / 25 fps / 5948 Кбит/сек
Аудио: MPEG1 Layer 2 / 48,0 КГц / 2 канала / 224 Кбит/сек

MediaInfo

Общее
Полное имя : G:\ley-barmaley\Взломщик (Ленфильм, 1987) (2002, Студия 48 часов, ВС48-137)\Взломщик (1987) [VHS Rip by ley-barmaley].mpg
Формат : MPEG-PS
Размер файла : 3,67 Гбайт
Продолжительность : 1 ч. 23 м.
Режим общего битрейта : Переменный
Общий поток : 6297 Кбит/сек
Видео
Идентификатор : 224 (0xE0)
Формат : MPEG Video
Версия формата : Version 2
Профиль формата : Main@Main
Параметр BVOP формата : Да
Параметр матрицы формата : Выборочная
Параметр GOP формата : M=3, N=12
Продолжительность : 1 ч. 23 м.
Вид битрейта : Переменный
Битрейт : 5948 Кбит/сек
Максимальный битрейт : 8500 Кбит/сек
Ширина : 720 пикселей
Высота : 576 пикселей
Соотношение сторон : 4:3
Частота кадров : 25,000 кадров/сек
Стандарт вещания : PAL
Цветовое пространство : YUV
Субдискретизация насыщенности : 4:2:0
Битовая глубина : 8 бит
Тип развёртки : Чересстрочная
Порядок развёртки : Верхнее поле первое
Метод сжатия : С потерями
Бит/(Пиксели*Кадры) : 0.574
Размер потока : 3,47 Гбайт (94%)
Основные цвета : BT.470-2 System B, BT.470-2 System G
Характеристики трансфера : BT.470-2 System B, BT.470-2 System G
Коэффициенты матрицы : BT.470-2 System B, BT.470-2 System G
Аудио
Идентификатор : 192 (0xC0)
Формат : MPEG Audio
Версия формата : Version 1
Профиль формата : Layer 2
Продолжительность : 1 ч. 23 м.
Вид битрейта : Постоянный
Битрейт : 224 Кбит/сек
Каналы : 2 канала
Частота : 48,0 КГц
Метод сжатия : С потерями
Размер потока : 134 Мбайт (4%)
[cybertorrent.ru].t284.torrent 
Торрент: Зарегистрирован [ 2019-03-18 10:04 ] · 23D82693EA6C9A9ECB857DB79EB8A7A766F3963E

Скачать .torrent

Скачать

19 KB

Статус: проверено
Скачан: 0 раз
Размер: 3,67 GB
terms.php
[Профиль] [ЛС]
Показать сообщения:    
Ответить на тему

Текущее время: 19-Сен 04:17

Часовой пояс: UTC ± 0



Вы не можете начинать темы
Вы не можете отвечать на сообщения
Вы не можете редактировать свои сообщения
Вы не можете удалять свои сообщения
Вы не можете голосовать в опросах
Вы не можете прикреплять файлы к сообщениям
Вы можете скачивать файлы

Партнеры

Выражаем благодарность всем людям, внесшим вклад в наш сайт в далёком прошлом. Мы помним Вас, гордимся Вами и ждём Вас обратно!

Интересное в сети