Курск / Kursk (Томас Винтерберг / Thomas Vinterberg) [2018, Бельгия, Люксембург, боевик, триллер, драма, история, BDRip-AVC] MVO (HDRezka Studio) + Sub (Eng) + Original Eng

Ответить на тему
Статистика раздачи
Размер:  1,45 GB   |    Зарегистрирован:  3 месяца 30 дней   |    Скачан:  0 раз

Полного источника не было: Никогда

   
 
Автор Сообщение

солнышко ®

Пол: Не указан

Стаж: 6 месяцев 3 дня

Сообщений: 565

Создавать темы 16-Май-2019 16:49

[Цитировать]

Курск / Kursk- Страна: Бельгия, Люксембург
Жанр: Боевик, триллер, драма, история
Год выпуска: 2018
Производство: Belga Productions, VIA EST
Продолжительность: 01:57:37
Перевод: Любительский (многоголосый закадровый) | HDRezka Studio
Субтитры: Русские (форс., на надпись в финале), Английские (полные)
Оригинальная аудиодорожка: Английский-Режиссер: Томас Винтерберг / Thomas Vinterberg-В ролях: Леа Сейду, Колин Фёрт, Маттиас Шонартс, Микаэл Нюквист, Макс фон Сюдов, Аугуст Диль, Стивен Вэддингтон, Маттиас Швайгхефер, Пернилла Аугуст, Златко Бурич-Описание: Фильм о событиях 2000 года, связанных с подлодкой «Курск». Вся правда о мужестве и стойкости российских подводников, о разногласиях и взаимопомощи, конфликтах и единении, о преданности и любви.
- -Дата премьеры (Мир): 6 сентября 2018
Дата премьеры (РФ): 27 июня 2019, «Экспонента»-Качество видео: BDRip-AVC | BDRemux | Kursk.2018.1080p.BluRay.REMUX.AVC.DTS-HD.MA.7.1-FGT
Формат видео: MKV
Видео кодек: MPEG-4 AVC
Видео: 976x408 (2.40:1), 24,000 fps, x264 ~1 327 kbps avg, 0.139 bit/pixel
Аудио 1: 48 kHz, AC3 Dolby Digital, 2 (L,R) ch, ~192.00 kbps avg | RUS (HDRezka Studio)
Аудио 2: 48 kHz, AC3 Dolby Digital, 3/2 (L,C,R,l,r) + LFE ch, ~256.00 kbps avg | ENG- -

MediaInfo

Код:General
Unique ID : 252918339945807813554490535633300450959 (0xBE464CE98BDC320DCACC72752C136E8F)
Complete name : C:\Rutracker\Kursk_2018_BDRip_AVC.mkv
Format : Matroska
Format version : Version 4
File size : 1.45 GiB
Duration : 1 h 57 min
Overall bit rate : 1 770 kb/s
Movie name : Kursk.2018 #TorpedoUK#
Encoded date : UTC 2019-03-16 02:49:57
Writing application : mkvmerge v29.0.0 ('Like It Or Not') 64-bit
Writing library : libebml v1.3.6 + libmatroska v1.4.9
Video
ID : 1
Format : AVC
Format/Info : Advanced Video Codec
Format profile : High@L4.1
Format settings : CABAC / 10 Ref Frames
Format settings, CABAC : Yes
Format settings, ReFrames : 10 frames
Codec ID : V_MPEG4/ISO/AVC
Duration : 1 h 57 min
Bit rate : 1 327 kb/s
Width : 976 pixels
Height : 408 pixels
Display aspect ratio : 2.40:1
Frame rate mode : Constant
Frame rate : 24.000 FPS
Color space : YUV
Chroma subsampling : 4:2:0
Bit depth : 8 bits
Scan type : Progressive
Bits/(Pixel*Frame) : 0.139
Stream size : 1.09 GiB (75%)
Writing library : x264 core 146 r2538 121396c
Encoding settings : cabac=1 / ref=10 / deblock=1:-2:-3 / analyse=0x3:0x113 / me=umh / subme=10 / psy=1 / psy_rd=0.97:0.05 / mixed_ref=1 / me_range=48 / chroma_me=1 / trellis=2 / 8x8dct=1 / cqm=0 / deadzone=21,11 / fast_pskip=1 / chroma_qp_offset=-3 / threads=6 / lookahead_threads=1 / sliced_threads=0 / nr=0 / decimate=1 / interlaced=0 / bluray_compat=0 / constrained_intra=0 / bframes=11 / b_pyramid=2 / b_adapt=2 / b_bias=0 / direct=3 / weightb=1 / open_gop=0 / weightp=2 / keyint=240 / keyint_min=24 / scenecut=40 / intra_refresh=0 / rc_lookahead=40 / rc=2pass / mbtree=0 / bitrate=1327 / ratetol=1.0 / qcomp=0.60 / qpmin=0 / qpmax=69 / qpstep=4 / cplxblur=20.0 / qblur=0.5 / vbv_maxrate=50000 / vbv_bufsize=62500 / nal_hrd=none / filler=0 / ip_ratio=1.40 / pb_ratio=1.30 / aq=1:1.00
Default : Yes
Forced : No
Audio #1
ID : 2
Format : AC-3
Format/Info : Audio Coding 3
Commercial name : Dolby Digital
Codec ID : A_AC3
Duration : 1 h 57 min
Bit rate mode : Constant
Bit rate : 192 kb/s
Channel(s) : 2 channels
Channel layout : L R
Sampling rate : 48.0 kHz
Frame rate : 31.250 FPS (1536 SPF)
Bit depth : 16 bits
Compression mode : Lossy
Stream size : 161 MiB (11%)
Title : MVO [HDRezka Studio]
Language : Russian
Service kind : Complete Main
Default : Yes
Forced : No
Audio #2
ID : 3
Format : AC-3
Format/Info : Audio Coding 3
Commercial name : Dolby Digital
Codec ID : A_AC3
Duration : 1 h 57 min
Bit rate mode : Constant
Bit rate : 256 kb/s
Channel(s) : 6 channels
Channel layout : L R C LFE Ls Rs
Sampling rate : 48.0 kHz
Frame rate : 31.250 FPS (1536 SPF)
Bit depth : 16 bits
Compression mode : Lossy
Stream size : 215 MiB (14%)
Title : [Original]
Language : English
Service kind : Complete Main
Default : No
Forced : No
Text #1
ID : 4
Format : UTF-8
Codec ID : S_TEXT/UTF8
Codec ID/Info : UTF-8 Plain Text
Duration : 9 s 0 ms
Bit rate : 90 b/s
Count of elements : 1
Stream size : 102 Bytes (0%)
Title : Forced
Language : Russian
Default : Yes
Forced : No
Text #2
ID : 5
Format : UTF-8
Codec ID : S_TEXT/UTF8
Codec ID/Info : UTF-8 Plain Text
Duration : 1 h 48 min
Bit rate : 41 b/s
Count of elements : 1154
Stream size : 32.7 KiB (0%)
Title : Full
Language : English
Default : No
Forced : No
Menu
00:00:00.000 : :Capítulo 01
00:10:34.458 : :Capítulo 02
00:20:02.125 : :Capítulo 03
00:31:43.208 : :Capítulo 04
00:38:37.458 : :Capítulo 05
00:48:32.125 : :Capítulo 06
00:59:55.167 : :Capítulo 07
01:08:57.250 : :Capítulo 08
01:18:15.458 : :Capítulo 09
01:28:53.208 : :Capítulo 10
01:38:17.875 : :Capítulo 11
01:47:31.417 : :Capítulo 12

Скриншоты

[cybertorrent.ru].t2849.torrent 
Торрент: Зарегистрирован [ 2019-05-16 16:49 ] · 43A71E3915874641A6CBFFB85B6D305F0E76CE3C

Скачать .torrent

Скачать

15 KB

Статус: проверено
Скачан: 0 раз
Размер: 1,45 GB
terms.php
[Профиль] [ЛС]
Показать сообщения:    
Ответить на тему

Текущее время: 16-Сен 08:40

Часовой пояс: UTC ± 0



Вы не можете начинать темы
Вы не можете отвечать на сообщения
Вы не можете редактировать свои сообщения
Вы не можете удалять свои сообщения
Вы не можете голосовать в опросах
Вы не можете прикреплять файлы к сообщениям
Вы можете скачивать файлы

Партнеры

Выражаем благодарность всем людям, внесшим вклад в наш сайт в далёком прошлом. Мы помним Вас, гордимся Вами и ждём Вас обратно!

Интересное в сети