Рэмбо / Первая кровь / Они начали первыми / First Blood / Rambo (Тед Котчефф / Ted Kotcheff) [1982, США, боевик, драма, BDRip-AVC] AVO (Иванов) + VO (Сука-Падла) + Sub Eng, Rus + Original Eng

Ответить на тему
Статистика раздачи
Размер:  2,15 GB   |    Зарегистрирован:  5 месяцев 30 дней   |    Скачан:  0 раз

Полного источника не было: Никогда

   
 
Автор Сообщение

serzh ®

Пол: Не указан

Стаж: 6 месяцев 5 дней

Сообщений: 383

Создавать темы 18-Мар-2019 09:59

[Цитировать]

Рэмбо / Первая кровь / Они начали первыми / First Blood / Rambo
Страна: США
Жанр: боевик, драма
Год выпуска: 1982
Продолжительность: 01:33:16
Перевод 1: Авторский (одноголосый закадровый) Михаила Иванова
Перевод 2: Одноголосый закадровый "Суки-Падлы"
Субтитры: английские, русские
Оригинальная аудиодорожка: английский
Режиссер: Тед Котчефф /Ted Kotcheff/
В ролях: Сильвестр Сталлоне /Sylvester Stallone/, Ричард Кренна /Richard Crenna/, Брайан Деннехи /Brian Dennehy/, Дэвид Карузо /David Caruso/, Джек Старретт /Jack Starrett/, Майкл Тэлбот /Michael Talbot/, Билл МакКинни /Bill McKinney/, Крис Малки /Chris Mulkey/...
Рецензия Михаила Иванова: Бывший "зеленый берет" по имени Рэмбо (Сталлоне) противозаконно арестован шерифом-самодуром, которому "не ндравятся" пришлые хиппари, особенно, если они не бриты и не стрижены. Он засадил неразговорчивого парня за решеткой, "помыл" его из шланга холодной водой и велел насильно побрить всухую. Рэмбо же, хлебнувший лиха в плену у вьетконговцев, разнервничался, надавал по мордасам нескольким полицейским и сбежал в лес. Там его принялись ловить, но специалист по выживанию задал им всем перцу, никого, правда, не убивая до смерти. Фильм пользовался невероятным кассовым успехом и стал своего рода эталоном, с которым сравнивают до сих пор аналогичные боевики. Прошло уже 13 лет, а фильм так и остался непревзойденным.
Доп. информация: исходник от arestarh1986; Иванов из коллекции RoxMarty; при соучастии Selena_a; Суку-Падлу оцифровал и подготовил karlll
"Сука-падла" получил такое прозвище из-за своей фразы в фильме Джона Лэндиса "Поездка в Америку"
раздача невольно родилась в ДЕНЬ ЗАЩИТНИКА ОТЕЧЕСТВА
Качество видео: BDRip-AVC ~сэмпл~
Формат видео: MKV
Видео: MPEG4 Video (H264) 1152x488 23.976fps 2715Kbps
Аудио 1: Dolby AC3 48KHz 2ch 192Kbps - Иванов
Аудио 2: Dolby AC3 48KHz 2ch 192Kbps - Сука-Падла
Аудио 3: Dolby AC3 48KHz 2ch 192Kbps - Original Eng
Формат субтитров: softsub (SRT)

MediaInfo

Format : Matroska
Format version : Version 2
File size : 2.15 GiB
Duration : 1 h 33 min
Overall bit rate : 3 294 kb/s
Movie name : Rambo_First Blood_1982_BDRip_KBC
Encoded date : UTC 2019-03-04 22:53:25
Writing application : mkvmerge v6.9.1 ('Blue Panther') 32bit built on Apr 18 2014 18:15:44
Writing library : libebml v1.3.0 + libmatroska v1.4.1
Video
ID : 1
Format : AVC
Format/Info : Advanced Video Codec
Format profile : High@L3.1
Format settings : CABAC / 7 Ref Frames
Format settings, CABAC : Yes
Format settings, RefFrames : 7 frames
Codec ID : V_MPEG4/ISO/AVC
Duration : 1 h 33 min
Bit rate : 2 715 kb/s
Width : 1 152 pixels
Height : 488 pixels
Display aspect ratio : 2.35:1
Frame rate mode : Constant
Frame rate : 23.976 (24000/1001) FPS
Color space : YUV
Chroma subsampling : 4:2:0
Bit depth : 8 bits
Scan type : Progressive
Bits/(Pixel*Frame) : 0.201
Stream size : 1.73 GiB (81%)
Title : Rambo_First Blood_1982_BDRip
Writing library : x264 core 152 r2851kMod ba24899
Encoding settings : cabac=1 / ref=7 / deblock=1:-1:-1 / analyse=0x3:0x113 / me=umh / subme=9 / psy=1 / fade_compensate=0.00 / psy_rd=1.00:0.20 / mixed_ref=1 / me_range=24 / chroma_me=1 / trellis=2 / 8x8dct=1 / cqm=0 / deadzone=21,11 / fast_pskip=0 / chroma_qp_offset=-3 / threads=6 / lookahead_threads=1 / sliced_threads=0 / nr=0 / decimate=0 / interlaced=0 / bluray_compat=0 / constrained_intra=0 / bframes=7 / b_pyramid=2 / b_adapt=2 / b_bias=0 / direct=3 / weightb=1 / open_gop=0 / weightp=2 / keyint=250 / keyint_min=23 / scenecut=40 / intra_refresh=0 / rc_lookahead=50 / rc=2pass / mbtree=1 / bitrate=2715 / ratetol=1.0 / qcomp=0.60 / qpmin=0 / qpmax=69 / qpstep=4 / cplxblur=20.0 / qblur=0.5 / vbv_maxrate=14000 / vbv_bufsize=14000 / nal_hrd=none / filler=0 / ip_ratio=1.40 / aq=1:1.00
Language : English
Default : Yes
Forced : No
Audio #1
ID : 2
Format : AC-3
Format/Info : Audio Coding 3
Commercial name : Dolby Digital
Codec ID : A_AC3
Duration : 1 h 33 min
Bit rate mode : Constant
Bit rate : 192 kb/s
Channel(s) : 2 channels
Channel layout : L R
Sampling rate : 48.0 kHz
Frame rate : 31.250 FPS (1536 SPF)
Bit depth : 16 bits
Compression mode : Lossy
Stream size : 128 MiB (6%)
Title : Иванов
Language : Russian
Service kind : Complete Main
Default : Yes
Forced : No
Audio #2
ID : 3
Format : AC-3
Format/Info : Audio Coding 3
Commercial name : Dolby Digital
Codec ID : A_AC3
Duration : 1 h 33 min
Bit rate mode : Constant
Bit rate : 192 kb/s
Channel(s) : 2 channels
Channel layout : L R
Sampling rate : 48.0 kHz
Frame rate : 31.250 FPS (1536 SPF)
Bit depth : 16 bits
Compression mode : Lossy
Stream size : 128 MiB (6%)
Title : Сука-Падла
Language : Russian
Service kind : Complete Main
Default : No
Forced : No
Audio #3
ID : 4
Format : AC-3
Format/Info : Audio Coding 3
Commercial name : Dolby Digital
Codec ID : A_AC3
Duration : 1 h 33 min
Bit rate mode : Constant
Bit rate : 192 kb/s
Channel(s) : 2 channels
Channel layout : L R
Sampling rate : 48.0 kHz
Frame rate : 31.250 FPS (1536 SPF)
Bit depth : 16 bits
Compression mode : Lossy
Stream size : 128 MiB (6%)
Title : english
Language : English
Service kind : Complete Main
Default : No
Forced : No
Text #1
ID : 5
Format : UTF-8
Codec ID : S_TEXT/UTF8
Codec ID/Info : UTF-8 Plain Text
Title : eng
Language : English
Default : No
Forced : No
Text #2
ID : 6
Format : UTF-8
Codec ID : S_TEXT/UTF8
Codec ID/Info : UTF-8 Plain Text
Title : рус
Language : Russian
Default : No
Forced : No
Text #3
ID : 7
Format : UTF-8
Codec ID : S_TEXT/UTF8
Codec ID/Info : UTF-8 Plain Text
Title : рус
Language : Russian
Default : No
Forced : No
Menu
00:00:00.000 : en:Main Credits
00:02:20.641 : en:Served Together
00:04:44.201 : en:The Law
00:08:05.985 : en:Concealed Weapon
00:09:53.843 : en:"Your Name?"
00:12:46.766 : en:Fingerprints
00:15:01.859 : en:Escape
00:17:36.555 : en:Tailing Rambo
00:22:06.450 : en:Fleeing Justice
00:24:49.154 : en:Free Fall
00:32:12.430 : en:War Hero
00:34:14.344 : en:Decoy
00:37:17.277 : en:Weakening the Enemy
00:42:11.946 : en:Colonel Samuel Trautman
00:47:21.672 : en:Defuse the Situation
00:50:21.352 : en:Drew First Blood
00:53:55.274 : en:No Shooting
00:58:21.915 : en:Trapped
01:02:41.675 : en:Rats
01:08:01.744 : en:Passage Out
01:10:33.938 : en:On the Loose
01:13:37.121 : en:Diversion
01:15:21.851 : en:Evacuation
01:17:42.366 : en:On the Roof
01:19:06.533 : en:Power Outage
01:22:03.669 : en:Revenge
01:24:17.135 : en:"It's Over"
01:26:24.221 : en:Can't Forget
01:28:34.851 : en:Surrender
01:29:47.924 : en:End Credits

Скриншоты

ps

и эта моя 300-ая раздача на трекккере, ура!!!!!!!!
[cybertorrent.ru].t325.torrent 
Торрент: Зарегистрирован [ 2019-03-18 10:04 ] · F91EBB995A9F2D20A58AFEE44B9E84E22D0F26E4

Скачать .torrent

Скачать

11 KB

Статус: проверено
Скачан: 0 раз
Размер: 2,15 GB
terms.php
[Профиль] [ЛС]
Показать сообщения:    
Ответить на тему

Текущее время: 18-Сен 09:35

Часовой пояс: UTC ± 0



Вы не можете начинать темы
Вы не можете отвечать на сообщения
Вы не можете редактировать свои сообщения
Вы не можете удалять свои сообщения
Вы не можете голосовать в опросах
Вы не можете прикреплять файлы к сообщениям
Вы можете скачивать файлы

Партнеры

Выражаем благодарность всем людям, внесшим вклад в наш сайт в далёком прошлом. Мы помним Вас, гордимся Вами и ждём Вас обратно!

Интересное в сети