Суфражистка / Suffragette (Сара Гаврон / Sarah Gavron) [2015, Великобритания, драма, биография, история, BDRip-AVC] Dub + Original Eng + Sub (Rus, Eng)

Ответить на тему
Статистика раздачи
Размер:  2,22 GB   |    Зарегистрирован:  5 месяцев 28 дней   |    Скачан:  0 раз

Полного источника не было: Никогда

   
 
Автор Сообщение

cyber ®

Пол: Не указан

Стаж: 6 месяцев 3 дня

Сообщений: 160

Создавать темы 18-Мар-2019 09:58

[Цитировать]

Суфражистка / Suffragette- Страна: Великобритания
Жанр: драма, биография, история
Год выпуска: 2015
Продолжительность: 01:46:52
Перевод: Профессиональный (дублированный)
Субтитры: русские, английские
Оригинальная аудиодорожка: английский
Режиссер: Сара Гаврон / Sarah Gavron
В ролях: Кэри Маллиган, Хелена Бонем Картер, Брендан Глисон, Энн-Мэри Дафф, Мэрил Стрип, Грэйс Стоттор, Джофф Белл, Аманда Лоуренс, Шелли Лонгуорт, Адам Майкл Додд
Описание: Фильм посвящен движению суфражисток (борьба за предоставление женщинам избирательных прав), зародившемуся в Великобритании в конце 19 века.
Сэмпл: http://sendfile.su/1479208

Качество видео: BDRip-AVC (Суфражистка 2015 Blu-ray disc)
Формат видео: MKV
Видео: x264, 1152x482 (2.40:1) 23,976 fps, ~2074 kbps, 0,156 bit/pixel
Аудио 1: 48 kHz, AC3 Dolby Digital, 3/2 (L,C,R,l,r) + LFE ch, ~448 kbps | Дубляж
Аудио 2: 48 kHz, AC3 Dolby Digital, 3/2 (L,C,R,l,r) + LFE ch, ~448 kbps | Английский
Формат субтитров: softsub (SRT)

MediaInfo

General
Unique ID : 268313070426926922229361286139977153609 (0xC9DB37B9E9F110F809ED601AFA503C49)
Format : Matroska
Format version : Version 4 / Version 2
File size : 2.22 GiB
Duration : 1h 46mn
Overall bit rate : 2 973 Kbps
Encoded date : UTC 2019-03-03 07:43:55
Writing application : mkvmerge v31.0.0 ('Dolores In A Shoestand') 64-bit
Writing library : libebml v1.3.6 + libmatroska v1.4.9
Video #1
ID : 1
Format : AVC
Format/Info : Advanced Video Codec
Format profile : High@L4.1
Format settings, CABAC : Yes
Format settings, ReFrames : 13 frames
Codec ID : V_MPEG4/ISO/AVC
Duration : 1h 46mn
Bit rate : 2 074 Kbps
Width : 1 152 pixels
Height : 482 pixels
Display aspect ratio : 2.40:1
Frame rate mode : Constant
Frame rate : 23.976 (24000/1001) fps
Color space : YUV
Chroma subsampling : 4:2:0
Bit depth : 8 bits
Scan type : Progressive
Bits/(Pixel*Frame) : 0.156
Stream size : 1.55 GiB (70%)
Writing library : x264 core 157 r2935 545de2f
Encoding settings : cabac=1 / ref=13 / deblock=1:-3:-2 / analyse=0x3:0x133 / me=umh / subme=10 / psy=1 / psy_rd=1.00:0.00 / mixed_ref=1 / me_range=32 / chroma_me=1 / trellis=2 / 8x8dct=1 / cqm=0 / deadzone=21,11 / fast_pskip=0 / chroma_qp_offset=-2 / threads=6 / lookahead_threads=1 / sliced_threads=0 / nr=0 / decimate=1 / interlaced=0 / bluray_compat=0 / constrained_intra=0 / bframes=14 / b_pyramid=2 / b_adapt=2 / b_bias=0 / direct=1 / weightb=1 / open_gop=0 / weightp=2 / keyint=250 / keyint_min=23 / scenecut=40 / intra_refresh=0 / rc=crf / mbtree=0 / crf=20.5 / qcomp=0.65 / qpmin=0 / qpmax=69 / qpstep=4 / ip_ratio=1.40 / pb_ratio=1.30 / aq=3:0.90
Language : English
Default : Yes
Forced : No
Audio #2
ID : 2
Format : AC-3
Format/Info : Audio Coding 3
Mode extension : CM (complete main)
Format settings, Endianness : Big
Codec ID : A_AC3
Duration : 1h 46mn
Bit rate mode : Constant
Bit rate : 448 Kbps
Channel(s) : 6 channels
Channel positions : Front: L C R, Side: L R, LFE
Sampling rate : 48.0 KHz
Frame rate : 31.250 fps (1536 spf)
Compression mode : Lossy
Stream size : 342 MiB (15%)
Language : Russian
Default : Yes
Forced : No
Audio #3
ID : 3
Format : AC-3
Format/Info : Audio Coding 3
Mode extension : CM (complete main)
Format settings, Endianness : Big
Codec ID : A_AC3
Duration : 1h 46mn
Bit rate mode : Constant
Bit rate : 448 Kbps
Channel(s) : 6 channels
Channel positions : Front: L C R, Side: L R, LFE
Sampling rate : 48.0 KHz
Frame rate : 31.250 fps (1536 spf)
Compression mode : Lossy
Stream size : 342 MiB (15%)
Language : English
Default : No
Forced : No
Text #4
ID : 4
Format : UTF-8
Codec ID : S_TEXT/UTF8
Codec ID/Info : UTF-8 Plain Text
Duration : 1h 35mn
Bit rate : 1 bps
Count of elements : 12
Stream size : 784 Bytes (0%)
Title : Forced
Language : Russian
Default : Yes
Forced : No
Text #5
ID : 5
Format : UTF-8
Codec ID : S_TEXT/UTF8
Codec ID/Info : UTF-8 Plain Text
Duration : 1h 39mn
Bit rate : 80 bps
Count of elements : 1126
Stream size : 58.1 KiB (0%)
Language : Russian
Default : No
Forced : No
Text #6
ID : 6
Format : UTF-8
Codec ID : S_TEXT/UTF8
Codec ID/Info : UTF-8 Plain Text
Duration : 1h 36mn
Bit rate : 47 bps
Count of elements : 1133
Stream size : 33.4 KiB (0%)
Language : English
Default : No
Forced : No
Text #7
ID : 7
Format : UTF-8
Codec ID : S_TEXT/UTF8
Codec ID/Info : UTF-8 Plain Text
Duration : 1h 36mn
Bit rate : 51 bps
Count of elements : 1189
Stream size : 36.9 KiB (0%)
Title : SDH
Language : English
Default : No
Forced : No
Text #8
ID : 8
Format : UTF-8
Codec ID : S_TEXT/UTF8
Codec ID/Info : UTF-8 Plain Text
Duration : 1h 36mn
Bit rate : 62 bps
Count of elements : 1189
Stream size : 44.4 KiB (0%)
Title : SDH-Colored
Language : English
Default : No
Forced : No

лог

raw [info]: 1152x482p 1:1 @ 24000/1001 fps (cfr)
x264 [info]: using SAR=1/1
x264 [info]: using cpu capabilities: MMX2 SSE2Fast SSSE3 SSE4.2 AVX XOP FMA3 BMI1
x264 [info]: profile High, level 4.1, 4:2:0, 8-bit
x264 [info]: frame I:848 Avg QP:16.89 size: 51934
x264 [info]: frame P:29804 Avg QP:18.72 size: 22545
x264 [info]: frame B:123092 Avg QP:21.33 size: 7690
x264 [info]: consecutive B-frames: 1.2% 1.9% 7.6% 9.6% 13.8% 51.4% 3.7% 0.7% 1.4% 1.0% 1.2% 3.1% 1.4% 1.4% 0.6%
x264 [info]: mb I I16..4: 7.2% 81.4% 11.4%
x264 [info]: mb P I16..4: 0.9% 11.6% 1.1% P16..4: 43.6% 22.4% 15.0% 0.1% 0.0% skip: 5.3%
x264 [info]: mb B I16..4: 0.1% 0.8% 0.1% B16..8: 45.5% 10.2% 2.1% direct: 4.1% skip:37.1% L0:47.5% L1:48.7% BI: 3.8%
x264 [info]: 8x8 transform intra:84.8% inter:70.0%
x264 [info]: coded y,uvDC,uvAC intra: 86.5% 75.1% 44.4% inter: 24.1% 13.2% 0.8%
x264 [info]: i16 v,h,dc,p: 34% 14% 11% 41%
x264 [info]: i8 v,h,dc,ddl,ddr,vr,hd,vl,hu: 14% 6% 5% 10% 14% 14% 14% 11% 11%
x264 [info]: i4 v,h,dc,ddl,ddr,vr,hd,vl,hu: 22% 4% 3% 10% 14% 13% 13% 10% 10%
x264 [info]: i8c dc,h,v,p: 37% 27% 20% 16%
x264 [info]: Weighted P-Frames: Y:21.5% UV:12.7%
x264 [info]: ref P L0: 42.5% 7.8% 18.0% 7.6% 5.8% 4.3% 3.7% 2.1% 1.9% 1.6% 1.5% 1.4% 1.4% 0.3% 0.0%
x264 [info]: ref B L0: 69.6% 12.0% 6.5% 3.2% 2.3% 1.8% 1.5% 0.9% 0.7% 0.7% 0.4% 0.2%
x264 [info]: ref B L1: 92.9% 7.1%
x264 [info]: kb/s:2074.10
x264 [total]: encoded 153744 frames, 5.07 fps, 2074.10 kb/s

Скриншоты


[cybertorrent.ru].t378.torrent 
Торрент: Зарегистрирован [ 2019-03-18 10:04 ] · 8C166E2BE772161134361486B354A2B856CD94FB

Скачать .torrent

Скачать

12 KB

Статус: проверено
Скачан: 0 раз
Размер: 2,22 GB
terms.php
[Профиль] [ЛС]
Показать сообщения:    
Ответить на тему

Текущее время: 16-Сен 04:23

Часовой пояс: UTC ± 0



Вы не можете начинать темы
Вы не можете отвечать на сообщения
Вы не можете редактировать свои сообщения
Вы не можете удалять свои сообщения
Вы не можете голосовать в опросах
Вы не можете прикреплять файлы к сообщениям
Вы можете скачивать файлы

Партнеры

Выражаем благодарность всем людям, внесшим вклад в наш сайт в далёком прошлом. Мы помним Вас, гордимся Вами и ждём Вас обратно!

Интересное в сети