Дальняя дорога / The Longest Ride (Джордж Тиллман мл. / George Tillman Jr.) [2015, США, драма, мелодрама, DVB-AVC] [Open Matte / Локализированный видеоряд] Dub + Original Eng

Ответить на тему
Статистика раздачи
Размер:  2,14 GB   |    Зарегистрирован:  2 месяца 8 дней   |    Скачан:  0 раз

Полного источника не было: Никогда

   
 
Автор Сообщение

cyber ®

Пол: Не указан

Стаж: 6 месяцев 6 дней

Сообщений: 162

Создавать темы 10-Июл-2019 16:34

[Цитировать]

Дальняя дорога
The Longest Ride
Страна: США
Жанр: драма, мелодрама
Продолжительность: 01:57:29
Год выпуска: 2015
Перевод: Профессиональный (дублированный)
Субтитры: отсутствуют
Оригинальная аудиодорожка: английский-Режиссёр: Джордж Тиллман мл.: George Tillman Jr.
В ролях: Скотт Иствуд, Бритт Робертсон, Алан Алда, Джек Хьюстон, Уна Чаплин, Мелисса Бенойст, Лолита Давидович, Элеа Оберон, Кейт Форбс, Тьяго Риани.-О фильме: Люк — экс-чемпион по родео, раздумывающий над возвращением в спорт. София — выпускница колледжа, получившая заманчивое предложение о работе в сфере искусства в Нью-Йорке. В то время как молодые люди пытаются сделать нелегкий выбор между чувствами и мечтами, жизнь сталкивает их со стариком Айрой. Воспоминания нового друга о его полувековых отношениях с женой вдохновляют Софию и Люка на главные решения в их жизни. Два поколения, две истории, вечная любовь.-
Семпл: https://www.sendspace.com/file/vpgz75-Качество: DVB-AVC [НТК]
Формат: MKV
Видео: AVC, 720x576 @ 1044x576 (16:9), 25 fps, ~1930 kbps, 0.184 bit/pixel
Аудио #1: [RUS] 48 kHz, AC3, 5.1 ch, 448 kbps
Аудио #2: [ENG] 48 kHz, AC3, 2 ch, 224 kbps

Mediainfo

General
Unique ID : 71490314699676305258244563823649003100 (0x35C888A5E576F703A90580FE84EA965C)
Complete name : H:\Раздачи\The.Longest.Ride.2015.DVB.Open.Matte.mkv
Format : Matroska
Format version : Version 4
File size : 2.14 GiB
Duration : 1 h 57 min
Overall bit rate : 2 607 kb/s
Encoded date : UTC 2019-07-08 07:22:25
Writing application : mkvmerge v34.0.0 ('Sight and Seen') 64-bit
Writing library : libebml v1.3.7 + libmatroska v1.5.0
Video
ID : 1
Format : AVC
Format/Info : Advanced Video Codec
Format profile : High@L3
Format settings : CABAC / 3 Ref Frames
Format settings, CABAC : Yes
Format settings, Reference : 3 frames
Codec ID : V_MPEG4/ISO/AVC
Duration : 1 h 57 min
Bit rate : 1 930 kb/s
Width : 720 pixels
Height : 576 pixels
Display aspect ratio : 16:9
Frame rate mode : Variable
Frame rate : 25.272 FPS
Original frame rate : 25.000 FPS
Standard : Component
Color space : YUV
Chroma subsampling : 4:2:0
Bit depth : 8 bits
Scan type : Interlaced
Scan type, store method : Separated fields
Scan order : Top Field First
Bits/(Pixel*Frame) : 0.184
Stream size : 1.58 GiB (74%)
Default : Yes
Forced : No
Color range : Limited
Color primaries : BT.601 PAL
Transfer characteristics : BT.470 System B/G
Matrix coefficients : BT.470 System B/G
Audio #1
ID : 2
Format : AC-3
Format/Info : Audio Coding 3
Commercial name : Dolby Digital
Codec ID : A_AC3
Duration : 1 h 57 min
Bit rate mode : Constant
Bit rate : 448 kb/s
Channel(s) : 6 channels
Channel layout : L R C LFE Ls Rs
Sampling rate : 48.0 kHz
Frame rate : 31.250 FPS (1536 SPF)
Bit depth : 16 bits
Compression mode : Lossy
Stream size : 376 MiB (17%)
Service kind : Complete Main
Default : Yes
Forced : No
Audio #2
ID : 3
Format : AC-3
Format/Info : Audio Coding 3
Commercial name : Dolby Digital
Codec ID : A_AC3
Duration : 1 h 57 min
Bit rate mode : Constant
Bit rate : 224 kb/s
Channel(s) : 2 channels
Channel layout : L R
Sampling rate : 48.0 kHz
Frame rate : 31.250 FPS (1536 SPF)
Bit depth : 16 bits
Compression mode : Lossy

Скриншоты

WideScreen vs Open Matte



[cybertorrent.ru].t4248.torrent 
Торрент: Зарегистрирован [ 2019-07-10 16:34 ] · B6D1BA28296010504E817D00AEB9A57760D3AD62

Скачать .torrent

Скачать

11 KB

Статус: проверено
Скачан: 0 раз
Размер: 2,14 GB
terms.php
[Профиль] [ЛС]
Показать сообщения:    
Ответить на тему

Текущее время: 19-Сен 04:31

Часовой пояс: UTC ± 0



Вы не можете начинать темы
Вы не можете отвечать на сообщения
Вы не можете редактировать свои сообщения
Вы не можете удалять свои сообщения
Вы не можете голосовать в опросах
Вы не можете прикреплять файлы к сообщениям
Вы можете скачивать файлы

Партнеры

Выражаем благодарность всем людям, внесшим вклад в наш сайт в далёком прошлом. Мы помним Вас, гордимся Вами и ждём Вас обратно!

Интересное в сети