Предатели / Traitors / Сезон: 1 / Серии: 1-4 из 6 (Дирбла Уолш, Алекс Винклер) [2019, Великобритания, Триллер, HDTVRip] DVO (Gears Media) + Original

Ответить на тему
Статистика раздачи
Размер:  2,28 GB   |    Зарегистрирован:  3 месяца 5 дней   |    Скачан:  0 раз

Полного источника не было: Никогда

   
 
Автор Сообщение

Рамфоринх ®

Пол: Не указан

Стаж: 3 месяца 12 дней

Сообщений: 295

Создавать темы 19-Мар-2019 18:33

[Цитировать]

Предатели / Traitors
Год выпуска: 2019
Страна: Великобритания
Жанр: Триллер
Продолжительность: ~ 00:55:00
Перевод: Профессиональный (двухголосый закадровый)[Gears Media]
Режиссёр: Дирбла Уолш, Алекс Винклер
В ролях: Эмма Эпплтон, Майкл Стулбарг, Кили Хоуз, Брэндон Пи Белл, Мэтт Лауриа, Саймон Кунц, Грег МакХью, Альберт Веллинг, Джейми Блэкли, Роберт Гудэйл
Описание:
После Второй мировой войны Британия изо всех сил пытается занять свое место в новом мировом порядке. Фиф Саймондс, смелая и амбициозная молодая женщина, приходит на государственную службу в 1945 году, как раз в то время, когда лейбористская партия стремится к победе. Фиф соглашается шпионить в пользу американцев, которые полны решимости сделать все возможное, чтобы растущие социалистические амбиции Англии не сыграли на руку Советскому Союзу. Пытаясь понять, за что она борется и на что способна, Фиф должна научиться думать самостоятельно и играть по собственным правилам во времена, когда информация завладевает миром и ничто не является тем, чем кажется.
Ссылка на предыдущие и альтернативные раздачи: http://cybertorrent.ru/forum/tracker.php?nm=Traitors
Сэмпл: http://multi-up.com/1224544
Качество: HDTVRip
Формат: AVI
Видео: XviD, 720x400 at 23.976 fps, ~1500 kbps avg
Аудио1: Russian, MP3, 48 kHz, 2 ch, 128 kbps
Аудио2: English, MP3, 48 kHz, 2 ch, 128 kbps
Субтитры: нет
Реклама: аудио (два раза, в начале и конце, по 12 сек.)

MediaInfo

Format : AVI
Format/Info : Audio Video Interleave
File size : 592 MiB
Duration : 47 min 1 s
Overall bit rate : 1 760 kb/s
Video
ID : 0
Format : MPEG-4 Visual
Format profile : Advanced Simple@L5
Format settings : BVOP1
Format settings, BVOP : 1
Format settings, QPel : No
Format settings, GMC : No warppoints
Format settings, Matrix : Default (H.263)
Codec ID : XVID
Codec ID/Hint : XviD
Duration : 47 min 1 s
Bit rate : 1 483 kb/s
Width : 720 pixels
Height : 400 pixels
Display aspect ratio : 16:9
Frame rate : 25.000 FPS
Color space : YUV
Chroma subsampling : 4:2:0
Bit depth : 8 bits
Scan type : Progressive
Compression mode : Lossy
Bits/(Pixel*Frame) : 0.206
Stream size : 499 MiB (84%)
Writing library : XviD 67
Audio #1
ID : 1
Format : MPEG Audio
Format version : Version 1
Format profile : Layer 3
Format settings : Joint stereo / MS Stereo
Codec ID : 55
Codec ID/Hint : MP3
Duration : 47 min 1 s
Bit rate mode : Constant
Bit rate : 128 kb/s
Channel(s) : 2 channels
Sampling rate : 48.0 kHz
Compression mode : Lossy
Stream size : 43.1 MiB (7%)
Alignment : Aligned on interleaves
Interleave, duration : 24 ms (0.60 video frame)
Title : Gears Media
Writing library : LAME3.100ЄЄЄЄЄЄЄЄЄЄЄ
Audio #2
ID : 2
Format : MPEG Audio
Format version : Version 1
Format profile : Layer 3
Format settings : Joint stereo / MS Stereo
Codec ID : 55
Codec ID/Hint : MP3
Duration : 47 min 1 s
Bit rate mode : Constant
Bit rate : 128 kb/s
Channel(s) : 2 channels
Sampling rate : 48.0 kHz
Compression mode : Lossy
Stream size : 43.0 MiB (7%)
Alignment : Aligned on interleaves
Interleave, duration : 24 ms (0.60 video frame)
Writing library : LAME3.100

Скриншоты

Внимание! Раздача ведётся путём добавления новых серий

Внимание! Раздача ведётся путём добавления новых серий; при каждом добавлении создаётся новый торрент. Чтобы начать докачку новой серии, пользователям необходимо сделать следующее:
(1) остановить скачивание,
(2) удалить старый торрент у себя из клиента (старые серии удалять не надо),
(3) скачать новый торрент и запустить его у себя в клиенте вместо старого, при этом указать клиенту путь в старую папку куда и должно происходить скачивание новых серий.
Ваш клиент при этом должен произвести хеширование (проверку) старой папки (если не производит сам - помогите ему сделать это), и будет докачивать только те серии которых у вас ещё нет. Старые серии при этом не удаляются, а продолжают раздаваться!
Eсли вы уже удалили старые серии, то предотвратить повторную закачку старых серий можно, отжав галочку в соответствующих местах при запуске нового торрента. По возможности, желательно не удалять старые серии как можно дольше чтобы релизёр не столько продолжал раздавать старые серии, а смог сконцентрироваться на новых.
[cybertorrent.ru].t1029.torrent 
Торрент: Зарегистрирован [ 2019-03-19 18:34 ] · 45FB97B41CF8959946DFB99F9DF3EEBDB5132CB2

Скачать .torrent

Скачать

12 KB

Статус: проверено
Скачан: 0 раз
Размер: 2,28 GB
terms.php
[Профиль] [ЛС]
Показать сообщения:    
Ответить на тему

Текущее время: 25-Июн 09:29

Часовой пояс: UTC ± 0



Вы не можете начинать темы
Вы не можете отвечать на сообщения
Вы не можете редактировать свои сообщения
Вы не можете удалять свои сообщения
Вы не можете голосовать в опросах
Вы не можете прикреплять файлы к сообщениям
Вы можете скачивать файлы