Роковой патруль / Doom Patrol / Сезон: 1 / Серии: 1-5 из 13 (Дермотт Даунс, Крис Мэнли, Салли Ричардсон-Уитфилд) [2019, СЩА, Фантастика, боевик, драма, приключения, WEB-DLRip-AVC] MVO (Profix Media) + Original5

Ответить на тему
Статистика раздачи
Размер:  2,41 GB   |    Зарегистрирован:  4 месяца 29 дней   |    Скачан:  0 раз

Полного источника не было: Никогда

   
 
Автор Сообщение

Рамфоринх ®

Пол: Не указан

Стаж: 5 месяцев 6 дней

Сообщений: 347

Создавать темы 19-Мар-2019 18:33

[Цитировать]

Роковой патруль | Doom Patrol- Год выпуска: 2019
Страна: СЩА
Жанр: Фантастика, боевик, драма, приключения
Продолжительность: ~00:58:00-Перевод: Профессиональный (многоголосый закадровый) Profix Media-Режиссёр: Дермотт Даунс, Крис Мэнли, Салли Ричардсон-Уитфилд-В ролях: Дайан Герерро, Эйприл Боулби, Алан Тьюдик, Мэтт Бомер, Брендан Фрейзер, Тимоти Далтон-Описание: Сюжет повествует о супергероях, обретших сверхспособности в результате изувечивших их роковых случайностей. В состав необычной команды под руководством сумасшедшего учёного Найлза Колдера (также известного как Шеф) входят Роботмен, Негативный Человек, Безумная Джейн и Эластичная Женщина. Сломленные и искалеченные, эти люди находят применение своим способностям, защищая Землю от самых невероятных угроз. Роковой патруль — команда изгоев, воюющих за спасение мира, которому нет до них никакого дела.-
[box=#aed8ff,#003465]Ссылка на предыдущие и альтернативные раздачи[/box]-Качество: WEB-DLRip-AVC
Контейнер: MKV
Видео: AVC/H.264, 720x320 (2,25:1), 23.976 кадров/сек, ~750-970 Кбит/сек
Аудио Rus: AAC, 44.1 kHz, 2 ch, 192 Кбит/сек | Profix Media
Аудио Eng: AAC, 44.1 kHz, 2 ch, 192 Кбит/сек
Субтитры: Русские полные | PhysKids, английские
Реклама: Отсутствует-

MediaInfo

Общее
Уникальный идентификатор : 216323800527408457912873533489158339923 (0xA2BE72D1ADACB30CE2ABA7937890BD53)
Полное имя : E:\Кино\РАЗДАЧА\Doom.Patrol.S01.Profix.Media\Doom.Patrol.S01E02.Profix.Media.mkv
Формат : Matroska
Версия формата : Version 4
Размер файла : 475 Мбайт
Продолжительность : 58 м. 0 с.
Общий поток : 1146 Кбит/сек
Дата кодирования : UTC 2019-02-25 17:35:38
Программа кодирования : mkvmerge v31.0.0 ('Dolores In A Shoestand') 64-bit
Библиотека кодирования : libebml v1.3.6 + libmatroska v1.4.9
Видео
Идентификатор : 1
Формат : AVC
Формат/Информация : Advanced Video Codec
Профиль формата : High@L3
Настройки формата : CABAC / 4 Ref Frames
Параметр CABAC формата : Да
Параметр RefFrames формата : 4 кадра
Идентификатор кодека : V_MPEG4/ISO/AVC
Продолжительность : 58 м. 0 с.
Битрейт : 754 Кбит/сек
Ширина : 720 пикселей
Высота : 320 пикселей
Соотношение сторон : 2,25:1
Режим частоты кадров : Постоянный
Частота кадров : 23,976 (23976/1000) кадра/сек
Цветовое пространство : YUV
Субдискретизация насыщенности : 4:2:0
Битовая глубина : 8 бит
Тип развёртки : Прогрессивная
Бит/(Пиксели*Кадры) : 0.137
Размер потока : 313 Мбайт (66%)
Default : Да
Forced : Нет
Аудио #1
Идентификатор : 4
Формат : AAC LC
Формат/Информация : Advanced Audio Codec Low Complexity
Идентификатор кодека : A_AAC-2
Продолжительность : 57 м. 59 с.
Битрейт : 192 Кбит/сек
Каналы : 2 канала
Channel layout : L R
Частота : 44,1 КГц
Частота кадров : 43,066 кадра/сек (1024 SPF)
Метод сжатия : С потерями
Размер потока : 80,2 Мбайт (17%)
Язык : Russian
Default : Да
Forced : Нет
Аудио #2
Идентификатор : 5
Формат : AAC LC
Формат/Информация : Advanced Audio Codec Low Complexity
Идентификатор кодека : A_AAC-2
Продолжительность : 57 м. 59 с.
Битрейт : 192 Кбит/сек
Каналы : 2 канала
Channel layout : L R
Частота : 44,1 КГц
Частота кадров : 43,066 кадра/сек (1024 SPF)
Метод сжатия : С потерями
Задержка видео : 9 мс.
Размер потока : 80,3 Мбайт (17%)
Язык : English
Default : Нет
Forced : Нет
Текст #1
Идентификатор : 2
Формат : UTF-8
Идентификатор кодека : S_TEXT/UTF8
Идентификатор кодека/Информация : UTF-8 Plain Text
Продолжительность : 56 м. 52 с.
Битрейт : 101 бит/сек
ElementCount : 819
Размер потока : 42,2 Кбайт (0%)
Язык : Russian
Default : Да
Forced : Нет
Текст #2
Идентификатор : 3
Формат : UTF-8
Идентификатор кодека : S_TEXT/UTF8
Идентификатор кодека/Информация : UTF-8 Plain Text
Продолжительность : 56 м. 50 с.
Битрейт : 61 бит/сек
ElementCount : 812
Размер потока : 25,5 Кбайт (0%)
Язык : English
Default : Нет
Forced : Нет
-

Скриншоты

-

Внимание! Раздача ведётся путём добавления новых серий

Внимание! Раздача ведётся путём добавления новых серий; при каждом добавлении создаётся новый торрент. Чтобы начать докачку новой серии, пользователям необходимо сделать следующее:
(1) остановить скачивание,
(2) удалить старый торрент у себя из клиента (старые серии удалять не надо),
(3) скачать новый торрент и запустить его у себя в клиенте вместо старого, при этом указать клиенту путь в старую папку куда и должно происходить скачивание новых серий.
Ваш клиент при этом должен произвести хеширование (проверку) старой папки (если не производит сам - помогите ему сделать это), и будет докачивать только те серии которых у вас ещё нет. Старые серии при этом не удаляются, а продолжают раздаваться!
Eсли вы уже удалили старые серии, то предотвратить повторную закачку старых серий можно, отжав галочку в соответствующих местах при запуске нового торрента. По возможности, желательно не удалять старые серии как можно дольше чтобы релизёр не столько продолжал раздавать старые серии, а смог сконцентрироваться на новых.
[cybertorrent.ru].t1045.torrent 
Торрент: Зарегистрирован [ 2019-03-19 18:34 ] · 275B120CA21EDE1DCCFD7D8CB1F8B1D1B37488DE

Скачать .torrent

Скачать

13 KB

Статус: проверено
Скачан: 0 раз
Размер: 2,41 GB
terms.php
[Профиль] [ЛС]
Показать сообщения:    
Ответить на тему

Текущее время: 18-Авг 16:21

Часовой пояс: UTC ± 0



Вы не можете начинать темы
Вы не можете отвечать на сообщения
Вы не можете редактировать свои сообщения
Вы не можете удалять свои сообщения
Вы не можете голосовать в опросах
Вы не можете прикреплять файлы к сообщениям
Вы можете скачивать файлы