Потерянная фотография (Лев Кулиджанов) [1959, детский фильм, драма, VHSRip]

Ответить на тему
Статистика раздачи
Размер:  947 MB   |    Зарегистрирован:  5 месяцев   |    Скачан:  0 раз

Полного источника не было: Никогда

   
 
Автор Сообщение

Leonard ®

Пол: Не указан

Стаж: 5 месяцев 6 дней

Сообщений: 57

Создавать темы 18-Мар-2019 10:02

[Цитировать]

Потерянная фотография
Жанр: детский фильм, драма
Год выпуска: 1959
Продолжительность: 01:13:33
Режиссёр: Лев Кулиджанов
В ролях:
Елена Кнаппова, Ян Шир, Властимил Бродский, Франтишек Ганус, Николай Гарин, Женя Демочкина, Вера Дихтяр, Николай Довженко, Лидия Драновская, Стелла Зазворкова, Александр Кекиш, Петер Колларик, Валерий Мотренко, Вячеслав Подвиг, Олег Попов, Томаш Седлачек, Ярмила Смейкалова, Дагмар Таборска, Леонид Топчиев, Н. Третьяченко, Станислав Фишер, Андрюша Чернощеков, Борис Чирков, Карел Эффа, Ян Пикса
Описание: О дружбе советских и чехословацких ребят.
Вашек не помнил человека, изображенного на фотографии. Это был советский танкист, один из тех, кто освободил Прагу от немцев в мае 1945 года. Мать часто рассказывала, как дорога была танкисту эта потерянная фотография - единственная память о семье, пропавшей в оккупированной Одессе. Вашек давно мечтал найти танкиста и вернуть ему фотографию. И, для того чтобы попасть в Советский Союз, он принял участие в конкурсе "Знаешь ли ты страны своих друзей", победитель которого получал право на поездку по Черноморскому побережью Советского Союза... Поезд увозил не Вашека, а трех других счастливых ребят, отправлявшихся в Советский Союз. Им-то и поручили пражские пионеры найти танкиста и вернуть ему фотографию. Вот и Одесса. Марина, русская подруга Алены, предложила план: нужно поместить фотографию в газете, кто-нибудь из близких или друзей узнает танкиста и сообщит в редакцию. В день, когда фотография появилась в газете, дизель-электроход "Россия" увозил детей в пионерский лагерь Артек. В Одессе осталась Марина; она должна была продолжать поиски... В Артеке у ребят появились новые друзья. Старый генерал Сафронов помог ребятам найти бывшего солдата Григория Мергеляна. Он-то и узнал по фотографии танкиста. Его звали Степаном Андреевичем Никитиным. Всю войну они прошли рядом, бок о бок, но лейтенант Никитин... погиб в последние дни войны. Вернувшись на пароход, дети узнали неожиданную новость. Оказывается, матрос Костя, которого дети видели на дизель-электроходе "Россия", - сын Никитина. У него была точно такая же фотография, как у Вашека. Но Костя не помнил родителей. Во время войны он потерял не только отца, но и мать... Приближался конец туристического путешествия, "Россия" вернулась в Одессу. Здесь детей ждала большая радость. Фотография, помещенная в газете, помогла найти жену Никитина, мать Кости. После многих лет разлуки встретились мать и сын! В далекую Прагу радио принесло слова горячей благодарности русской матери незнакомому, но дорогому чешскому другу Вашеку.
Доп. информация: киностудия им. М.Горького и "Баррандов"
Премьера
12 мая 1960 (Москва), 25 ноября 1960 (Прага)
Семпл: https://www.sendspace.com/file/8x1zhb
Качество видео: VHSRip
Формат видео: AVI
Видео: 640x480 (4:3), 25 fps, XviD build 1659 kbps.
Аудио: 48 kHz, MPEG Layer 3, 2 ch, ~128 kbps avg

MediaInfo

Общее
Полное имя : D:\Потерянная фотография (1959).avi
Формат : AVI
Формат/Информация : Audio Video Interleave
Размер файла : 947 Мбайт
Продолжительность : 1 ч. 13 м.
Общий поток : 1800 Кбит/сек
Программа кодирования : Lavf56.40.101
Видео
Идентификатор : 0
Формат : xvid
Идентификатор кодека : xvid
Продолжительность : 1 ч. 13 м.
Битрейт : 1659 Кбит/сек
Ширина : 640 пикселей
Высота : 480 пикселей
Соотношение сторон : 4:3
Частота кадров : 25,000 кадров/сек
Тип развёртки : Прогрессивная
Бит/(Пиксели*Кадры) : 0.216
Размер потока : 873 Мбайт (92%)
Аудио
Идентификатор : 1
Формат : MPEG Audio
Версия формата : Version 1
Профиль формата : Layer 3
Настройки формата : Joint stereo / MS Stereo
Идентификатор кодека : 55
Идентификатор кодека/Подсказка : MP3
Продолжительность : 1 ч. 13 м.
Вид битрейта : Постоянный
Битрейт : 128 Кбит/сек
Каналы : 2 канала
Частота : 48,0 КГц
Метод сжатия : С потерями
Размер потока : 67,3 Мбайт (7%)
Выравнивание : Соединение по промежуткам
Продолжительность промежутка : 24 мс. (0,60 видеокадр)
Время предзагрузки промежутка : 24 мс.
Библиотека кодирования : LAME3.99.5
[cybertorrent.ru].t105.torrent 
Торрент: Зарегистрирован [ 2019-03-18 10:04 ] · 72768D34F7FD2578114DE96A956B87C90E2D6158

Скачать .torrent

Скачать

19 KB

Статус: проверено
Скачан: 0 раз
Размер: 947 MB
terms.php
[Профиль] [ЛС]
Показать сообщения:    
Ответить на тему

Текущее время: 19-Авг 04:12

Часовой пояс: UTC ± 0



Вы не можете начинать темы
Вы не можете отвечать на сообщения
Вы не можете редактировать свои сообщения
Вы не можете удалять свои сообщения
Вы не можете голосовать в опросах
Вы не можете прикреплять файлы к сообщениям
Вы можете скачивать файлы