Ура! Каникулы! (Максим Демченко) [2016, приключения, WEB-DLRip-AVC]

Ответить на тему
Статистика раздачи
Размер:  1,45 GB   |    Зарегистрирован:  2 месяца 29 дней   |    Скачан:  0 раз

Полного источника не было: Никогда

   
 
Автор Сообщение

Leonard ®

Пол: Не указан

Стаж: 3 месяца 4 дня

Сообщений: 54

Создавать темы 18-Мар-2019 10:02

[Цитировать]

Ура! Каникулы!- Жанр: приключения
Год выпуска: 2016
Продолжительность: 01:34:39-Режиссёр: Максим Демченко-В ролях:
Сергей Маркеев, Диана Милютина, Марьяна Смирнова, Варвара Расторгина, Анна Ковальчук, В. Коваленко, Ю. Кудояр, Д. Лысенков
Описание:
Ура! Зимние каникулы! Шестиклассник Паша вместе с семьей отправляется на горнолыжный курорт. Никто не мог предположить, что именно здесь скрываются похитители старинного ожерелья царицы Тамары… Развязка этого веселого детектива наступит под бой курантов в самый канун Нового года.-Сэмпл | Кинопоиск-Качество видео: WEB-DLRip-AVC
Формат видео: MKV
Видео: x264 (High@L4.1); 1032x432 25.000 fps; Display aspect ratio: 2.389:1; 1812 Kbps
Аудио: Оригинал: AC-3; 16 bits 48 Khz; 5.1ch 384 Kbps; CBR

MediaInfo

x264 log

avs [info]: 1032x432p 1:1 @ 25/1 fps (cfr)
x264 [info]: using SAR=1/1
x264 [info]: using cpu capabilities: MMX2 SSE2Fast SSSE3 SSE4.2
x264 [info]: profile High, level 4.1
x264 [info]: frame I:1012 Avg QP:19.53 size: 62021
x264 [info]: frame P:39756 Avg QP:21.57 size: 17799
x264 [info]: frame B:101231 Avg QP:23.99 size: 5096
x264 [info]: consecutive B-frames: 3.6% 6.8% 7.1% 66.2% 5.6% 8.8% 0.8% 0.6% 0.2% 0.3%
x264 [info]: mb I I16..4: 4.6% 68.7% 26.6%
x264 [info]: mb P I16..4: 0.5% 6.5% 1.4% P16..4: 34.3% 35.6% 13.1% 2.1% 0.3% skip: 6.1%
x264 [info]: mb B I16..4: 0.1% 0.9% 0.2% B16..8: 31.9% 17.6% 3.1% direct: 3.9% skip:42.2% L0:35.3% L1:47.9% BI:16.8%
x264 [info]: 8x8 transform intra:75.9% inter:57.6%
x264 [info]: direct mvs spatial:97.4% temporal:2.6%
x264 [info]: coded y,uvDC,uvAC intra: 88.6% 88.7% 65.3% inter: 19.1% 17.4% 9.1%
x264 [info]: i16 v,h,dc,p: 27% 12% 2% 59%
x264 [info]: i8 v,h,dc,ddl,ddr,vr,hd,vl,hu: 10% 9% 3% 9% 13% 14% 13% 14% 13%
x264 [info]: i4 v,h,dc,ddl,ddr,vr,hd,vl,hu: 13% 9% 3% 9% 14% 15% 13% 11% 12%
x264 [info]: i8c dc,h,v,p: 34% 22% 22% 22%
x264 [info]: Weighted P-Frames: Y:2.0% UV:1.1%
x264 [info]: ref P L0: 56.0% 13.2% 13.4% 4.1% 3.2% 2.2% 2.0% 1.0% 0.9% 0.8% 0.7% 0.6% 0.6% 0.5% 0.5% 0.4%
x264 [info]: ref B L0: 83.6% 7.8% 3.2% 1.4% 1.0% 0.7% 0.6% 0.4% 0.3% 0.3% 0.2% 0.2% 0.2% 0.1% 0.1%
x264 [info]: ref B L1: 96.4% 3.6%
x264 [info]: kb/s:1811.64
-General
Unique ID : 251519524092703376882784490759411813121 (0xBD38E5F74DF061B1B99E1BA7A4D94B01)
Complete name : Ура, каникулы.2016.mkv
Format : Matroska
Format version : Version 2
File size : 1.45 GiB
Duration : 1 h 34 min
Overall bit rate : 2 197 kb/s
Encoded date : UTC 2018-03-07 14:13:54
Writing application : mkvmerge v7.8.0 ('River Man') 32bit built on Mar 27 2015 16:18:02
Writing library : libebml v1.3.1 + libmatroska v1.4.2
Video
ID : 1
Format : AVC
Format/Info : Advanced Video Codec
Format profile : High@L4.1
Format settings, CABAC : Yes
Format settings, ReFrames : 16 frames
Codec ID : V_MPEG4/ISO/AVC
Duration : 1 h 34 min
Bit rate : 1 812 kb/s
Width : 1 032 pixels
Height : 432 pixels
Display aspect ratio : 2.40:1
Frame rate mode : Constant
Frame rate : 25.000 FPS
Color space : YUV
Chroma subsampling : 4:2:0
Bit depth : 8 bits
Scan type : Progressive
Bits/(Pixel*Frame) : 0.163
Stream size : 1.17 GiB (81%)
Title : Ура! Каникулы! 2016
Writing library : x264 core 152 r2851kMod ba24899
Encoding settings : cabac=1 / ref=16 / deblock=1:-2:-2 / analyse=0x3:0x133 / me=umh / subme=11 / psy=1 / fade_compensate=0.00 / psy_rd=1.04:0.00 / mixed_ref=1 / me_range=32 / chroma_me=1 / trellis=2 / 8x8dct=1 / cqm=0 / deadzone=21,11 / fast_pskip=0 / chroma_qp_offset=-2 / threads=12 / lookahead_threads=2 / sliced_threads=0 / nr=0 / decimate=0 / interlaced=0 / bluray_compat=0 / constrained_intra=0 / bframes=9 / b_pyramid=2 / b_adapt=2 / b_bias=0 / direct=3 / weightb=1 / open_gop=0 / weightp=2 / keyint=250 / keyint_min=25 / scenecut=40 / intra_refresh=0 / rc_lookahead=60 / rc=2pass / mbtree=0 / bitrate=1812 / ratetol=1.0 / qcomp=0.60 / qpmin=0 / qpmax=69 / qpstep=4 / cplxblur=20.0 / qblur=0.5 / vbv_maxrate=62500 / vbv_bufsize=78125 / nal_hrd=none / filler=0 / ip_ratio=1.30 / pb_ratio=1.30 / aq=3:0.80
Language : Russian
Default : Yes
Forced : No
Color range : Limited
Color primaries : BT.709
Transfer characteristics : BT.709
Matrix coefficients : BT.709
Audio
ID : 2
Format : AC-3
Format/Info : Audio Coding 3
Mode extension : CM (complete main)
Format settings, Endianness : Big
Codec ID : A_AC3
Duration : 1 h 34 min
Bit rate mode : Constant
Bit rate : 384 kb/s
Channel(s) : 6 channels
Channel positions : Front: L C R, Side: L R, LFE
Sampling rate : 48.0 kHz
Frame rate : 31.250 FPS (1536 spf)
Compression mode : Lossy
Stream size : 260 MiB (17%)
Title : Оригинал: AC-3; 16 bits 48 Khz; 5.1ch 384 Kbps; CBR
Language : Russian
Default : Yes
Forced : No

Скриншоты

[cybertorrent.ru].t106.torrent 
Торрент: Зарегистрирован [ 2019-03-18 10:04 ] · AEBF48E1C03FF788D4A8DF733F03EC3917572581

Скачать .torrent

Скачать

15 KB

Статус: проверено
Скачан: 0 раз
Размер: 1,45 GB
terms.php
[Профиль] [ЛС]
Показать сообщения:    
Ответить на тему

Текущее время: 16-Июн 19:13

Часовой пояс: UTC ± 0



Вы не можете начинать темы
Вы не можете отвечать на сообщения
Вы не можете редактировать свои сообщения
Вы не можете удалять свои сообщения
Вы не можете голосовать в опросах
Вы не можете прикреплять файлы к сообщениям
Вы можете скачивать файлы