Маленький мститель (Геннадий Александров) [1991, детский фильм, музыкальный фильм, сказка, VHSRip]

Ответить на тему
Статистика раздачи
Размер:  828 MB   |    Зарегистрирован:  3 месяца 7 дней   |    Скачан:  0 раз

Полного источника не было: Никогда

   
 
Автор Сообщение

Leonard ®

Пол: Не указан

Стаж: 3 месяца 13 дней

Сообщений: 54

Создавать темы 18-Мар-2019 10:02

[Цитировать]

Маленький мститель
Жанр: детский фильм, музыкальный фильм, сказка
Год выпуска: 1991
Продолжительность: 01:19:22
Режиссёр: Геннадий Александров
В ролях: Хашим Рахимов, Залина Ревазова, Хасан Ибрагимов, Л. Мухамедшин, Марат Хасанов
Описание: Герои фильма — музыкант Едгор, его дети и маленький мститель Озод — восстают против глупого правителя, который запретил петь на улицах города.
Доп. информация: ТАДЖИКФИЛЬМ
Особая благодарность-BURATANG-в создании данной раздачи.
Семпл: https://www.sendspace.com/file/r61btd
Качество видео: VHSRip
Формат видео: AVI
Видео: 640x368 (1,739), 25 fps, XviD build 1319 kbps.
Аудио: 48 kHz, MPEG Layer 3, 2 ch, ~128 kbps avg

MediaInfo

General
Полное имя : D:\Маленький мститель.1991.avi
Формат : AVI
Формат/Информация : Audio Video Interleave
Размер файла : 828 MiB
Продолжительность : 1 h 19 min
Общий поток : 1 459 kb/s
Программа кодирования : Lavf56.40.101
Video
Идентификатор : 0
Формат : xvid
Идентификатор кодека : xvid
Продолжительность : 1 h 19 min
Битрейт : 1 319 kb/s
Ширина : 640 pixels
Высота : 368 pixels
Соотношение сторон : 1.739
Частота кадров : 25.000 FPS
Тип развёртки : Progressive
Бит/(Пиксели*Кадры) : 0.224
Размер потока : 749 MiB (90%)
Audio
Идентификатор : 1
Формат : MPEG Audio
Версия формата : Version 1
Профиль формата : Layer 3
Настройки формата : Joint stereo / MS Stereo
Идентификатор кодека : 55
Идентификатор кодека/Подсказка : MP3
Продолжительность : 1 h 19 min
Вид битрейта : Constant
Битрейт : 128 kb/s
Каналы : 2 channels
Частота : 44.1 kHz
Метод сжатия : Lossy
Размер потока : 72.7 MiB (9%)
Выравнивание : Aligned on interleaves
Продолжительность промежутка : 26 ms (0.65 video frame)
Время предзагрузки промежутка : 26 ms
[cybertorrent.ru].t108.torrent 
Торрент: Зарегистрирован [ 2019-03-18 10:04 ] · 4C042AEC4E4B64393475D0435E982D5DD3D22B67

Скачать .torrent

Скачать

17 KB

Статус: проверено
Скачан: 0 раз
Размер: 828 MB
terms.php
[Профиль] [ЛС]
Показать сообщения:    
Ответить на тему

Текущее время: 25-Июн 21:50

Часовой пояс: UTC ± 0



Вы не можете начинать темы
Вы не можете отвечать на сообщения
Вы не можете редактировать свои сообщения
Вы не можете удалять свои сообщения
Вы не можете голосовать в опросах
Вы не можете прикреплять файлы к сообщениям
Вы можете скачивать файлы