Ты только не плачь (Алексей Мороз) [1979, детский, семейный, SATRip] [1979, детский, семейный, SATRip]

Ответить на тему
Статистика раздачи
Размер:  666 MB   |    Зарегистрирован:  1 месяц 6 дней   |    Скачан:  0 раз

Полного источника не было: Никогда

   
 
Автор Сообщение

Leonard ®

Пол: Не указан

Стаж: 1 месяц 12 дней

Сообщений: 51

Создавать темы 18-Мар-2019 10:02

[Цитировать]

Ты только не плачь (Алексей Мороз) [1979, детский, семейный, SATRip]
Жанр: детский, семейный
Год выпуска: 1979
Киностудия: Киностудия им. А. Довженко
Продолжительность: 1:04:30
Режиссёр: Алексей Мороз
В ролях: Лена Середа, Володя Чубарев, Павел Кадочников, Валерия Чайковская, Юлия Ткаченко, Владимир Волков, Константин Степанков, Александр Мовчан, Николай Мерзликин
Описание: Восьмилетняя Ольга Яковлева неожиданно для себя подружилась со взрослым шестиклассником Генкой Огоньковым и его дедушкой - настоящим профессором ботаники. Фильм об ученице второго класса, ее сложном внутреннем мире, ее долге перед людьми.
Доп. информация: По мотивам повести Сергея Иванова "Ольга Яковлева"
Семпл: https://yadi.sk/i/WuCU_mfo3Umaeh
Качество видео: SATRip
Формат видео: AVI
Видео: 720x320 (2.25:1), 100 fps, Intel ITU H.264 ~1228 kbps avg, 0.05 bit/pixel
Аудио: 44.100 kHz, , 2 ch, ~192.00 kbps avg

MediaInfo

General
Complete name : ty_ne_plach.avi
Format : AVI
Format/Info : Audio Video Interleave
File size : 666 MiB
Duration : 1 h 4 min
Overall bit rate mode : Variable
Overall bit rate : 1 444 kb/s
Writing application : Lavf57.56.100
Video
ID : 0
Format : AVC
Format/Info : Advanced Video Codec
Format profile : Main@L3.1
Format settings : CABAC / 16 Ref Frames
Format settings, CABAC : Yes
Format settings, RefFrames : 16 frames
Codec ID : H264
Duration : 1 h 4 min
Bit rate : 1 224 kb/s
Width : 720 pixels
Height : 320 pixels
Display aspect ratio : 2.25:1
Frame rate mode : Variable
Frame rate : 100.000 FPS
Color space : YUV
Chroma subsampling : 4:2:0
Bit depth : 8 bits
Scan type : Progressive
Bits/(Pixel*Frame) : 0.053
Stream size : 565 MiB (85%)
Audio
ID : 1
Format : AAC
Format/Info : Advanced Audio Codec
Format version : Version 4
Format profile : LC
Muxing mode : ADTS
Codec ID : FF
Duration : 1 h 4 min
Bit rate mode : Variable
Bit rate : 192 kb/s
Channel(s) : 2 channels
Channel positions : Front: L R
Sampling rate : 44.1 kHz
Frame rate : 43.066 FPS (1024 SPF)
Compression mode : Lossy
Stream size : 88.6 MiB (13%)
Alignment : Aligned on interleaves
Interleave, duration : 23 ms (2.32 video frames)

Скриншоты



Если ваш рейтинг упадет ниже 0,3, вы не сможете скачивать торренты! Подробнее о рейтинге.

[cybertorrent.ru].t112.torrent 
Торрент: Зарегистрирован [ 2019-03-18 10:04 ] · F47FAA575462034B532C688ADAC6D5881E22A31E

Скачать .torrent

Скачать

14 KB

Статус: проверено
Скачан: 0 раз
Размер: 666 MB
terms.php
[Профиль] [ЛС]
Показать сообщения:    
Ответить на тему

Текущее время: 24-Апр 17:47

Часовой пояс: UTC ± 0



Вы не можете начинать темы
Вы не можете отвечать на сообщения
Вы не можете редактировать свои сообщения
Вы не можете удалять свои сообщения
Вы не можете голосовать в опросах
Вы не можете прикреплять файлы к сообщениям
Вы можете скачивать файлы