Выше радуги (Георгий Юнгвальд-Хилькевич) [1986, детский, приключения, DVB]

Ответить на тему
Статистика раздачи
Размер:  5,41 GB   |    Зарегистрирован:  2 месяца 29 дней   |    Скачан:  0 раз

Полного источника не было: Никогда

   
 
Автор Сообщение

Leonard ®

Пол: Не указан

Стаж: 3 месяца 4 дня

Сообщений: 54

Создавать темы 18-Мар-2019 10:02

[Цитировать]

Выше радуги
Жанр: детский, приключения
Год выпуска: 1986
Продолжительность: 01:10:47 + 01:13:10
Режиссёр: Георгий Юнгвальд-Хилькевич
В ролях: Дмитрий Марьянов, Екатерина Парфенова, Юрий Куклачев, Ольга Машная, Галина Польских, Михаил Боярский, Елена Аминова
Описание: Алик Радуга хорошо учился, но успехов в спорте достичь не мог. Однажды волшебница наделила его даром прыгать выше всех, но если Алик когда-нибудь солжет - волшебство исчезнет.
Доп. информация: Запись потока *.ts со спутника Экспресс АМ6, 53° в.д., ремукс в *.mkv программой VideoReDo.
Качество видео: DVB
Формат видео: MKV
Видео: MPEG Video, 1024x576 (16:9), 25,000 кадров/сек, 5 012 Кбит/сек
Аудио: MPEG Audio, 48,0 КГц, 256 Кбит/сек, 2 канала

MediaInfo

General
Unique ID : 118413609285763690661955762247427356877 (0x5915A1B02FBCE542798260B5E316F8CD)
Complete name : E:\НАШЕ_А_К\ВЫШЕ РАДУГИ\ВЫШЕ РАДУГИ 1 (Kultura 53).mkv
Format : Matroska
Format version : Version 2
File size : 2.66 GiB
Duration : 1 h 10 min
Overall bit rate mode : Variable
Overall bit rate : 5 375 kb/s
Writing application : Lavf52.64.2
Writing library : Lavf52.64.2
Video
ID : 1
Format : MPEG Video
Format version : Version 2
Format profile : Main@Main
Format settings : CustomMatrix / BVOP
Format settings, BVOP : Yes
Format settings, Matrix : Custom
Format settings, GOP : M=3, N=15
Format settings, picture st : Frame
Codec ID : V_MPEG2
Codec ID/Info : MPEG 1 or 2 Video
Duration : 1 h 10 min
Bit rate mode : Variable
Bit rate : 5 012 kb/s
Maximum bit rate : 15.0 Mb/s
Width : 720 pixels
Height : 576 pixels
Display aspect ratio : 16:9
Original display aspect rat : 16:9
Frame rate mode : Constant
Frame rate : 25.000 FPS
Standard : PAL
Color space : YUV
Chroma subsampling : 4:2:0
Bit depth : 8 bits
Scan type : Interlaced
Scan order : Top Field First
Compression mode : Lossy
Bits/(Pixel*Frame) : 0.483
Stream size : 2.48 GiB (93%)
Default : Yes
Forced : No
Audio
ID : 2
Format : MPEG Audio
Format version : Version 1
Format profile : Layer 2
Codec ID : A_MPEG/L2
Codec ID/Hint : MP2
Duration : 1 h 10 min
Bit rate mode : Constant
Bit rate : 256 kb/s
Channel(s) : 2 channels
Sampling rate : 48.0 kHz
Compression mode : Lossy
Delay relative to video : 18 ms
Stream size : 130 MiB (5%)
Language : English
Default : Yes
Forced : No
General
Unique ID : 166980831825814519371235770814417453670 (0x7D9F56A260F35A4ADB1484BBBC0DC266)
Complete name : E:\НАШЕ_А_К\ВЫШЕ РАДУГИ\ВЫШЕ РАДУГИ 2 (Kultura 53).mkv
Format : Matroska
Format version : Version 2
File size : 2.75 GiB
Duration : 1 h 13 min
Overall bit rate mode : Variable
Overall bit rate : 5 375 kb/s
Writing application : Lavf52.64.2
Writing library : Lavf52.64.2
Video
ID : 1
Format : MPEG Video
Format version : Version 2
Format profile : Main@Main
Format settings : CustomMatrix / BVOP
Format settings, BVOP : Yes
Format settings, Matrix : Custom
Format settings, GOP : M=3, N=15
Format settings, picture st : Frame
Codec ID : V_MPEG2
Codec ID/Info : MPEG 1 or 2 Video
Duration : 1 h 13 min
Bit rate mode : Variable
Bit rate : 5 012 kb/s
Maximum bit rate : 15.0 Mb/s
Width : 720 pixels
Height : 576 pixels
Display aspect ratio : 16:9
Original display aspect rat : 16:9
Frame rate mode : Constant
Frame rate : 25.000 FPS
Standard : PAL
Color space : YUV
Chroma subsampling : 4:2:0
Bit depth : 8 bits
Scan type : Interlaced
Scan order : Top Field First
Compression mode : Lossy
Bits/(Pixel*Frame) : 0.483
Stream size : 2.56 GiB (93%)
Default : Yes
Forced : No
Audio
ID : 2
Format : MPEG Audio
Format version : Version 1
Format profile : Layer 2
Codec ID : A_MPEG/L2
Codec ID/Hint : MP2
Duration : 1 h 13 min
Bit rate mode : Constant
Bit rate : 256 kb/s
Channel(s) : 2 channels
Sampling rate : 48.0 kHz
Compression mode : Lossy
Delay relative to video : 18 ms
Stream size : 134 MiB (5%)
Language : English
Default : Yes
Forced : No
[cybertorrent.ru].t113.torrent 
Торрент: Зарегистрирован [ 2019-03-18 10:04 ] · D8CB1765E505ABAF790223328998685AA6035A7B

Скачать .torrent

Скачать

28 KB

Статус: проверено
Скачан: 0 раз
Размер: 5,41 GB
terms.php
[Профиль] [ЛС]
Показать сообщения:    
Ответить на тему

Текущее время: 16-Июн 19:55

Часовой пояс: UTC ± 0



Вы не можете начинать темы
Вы не можете отвечать на сообщения
Вы не можете редактировать свои сообщения
Вы не можете удалять свои сообщения
Вы не можете голосовать в опросах
Вы не можете прикреплять файлы к сообщениям
Вы можете скачивать файлы