Костяной томагавк / Bone Tomahawk (С. Крэйг Залер / S. Craig Zahler) [2015, США, Ужасы, драма, приключения, вестерн, BDRip] Dub (R5) + AVO (С. Визгунов) + Original + Sub (Rus, Eng)

Ответить на тему
Статистика раздачи
Размер:  3,01 GB   |    Зарегистрирован:  1 месяц 6 дней   |    Скачан:  0 раз

Полного источника не было: Никогда

   
 
Автор Сообщение

cyber ®

Пол: Не указан

Стаж: 1 месяц 12 дней

Сообщений: 61

Создавать темы 18-Мар-2019 10:02

[Цитировать]

Костяной томагавк / Bone Tomahawk«John Brooder: An armed gentleman»-- Страна: США, Великобритания
Жанр: Ужасы, Драма, Приключения, Вестерн
Год выхода: 2015
Продолжительность: 02:12:04
Перевод №1: Профессиональный (дублированный) | R5 |
Перевод №2: Авторский (одноголосый, закадровый) |С. Визгунов |
Оригинальная аудиодорожка: Английский
Субтитры: Русские, Английские (полные, SDH).
Режиссер: С. Крэйг Залер / S. Craig Zahler
В ролях: Курт Рассел, Патрик Уилсон, Мэттью Фокс, Ричард Дженкинс, Лили Симмонс, Эван Йоникит, Дэвид Аркетт, Фред Меламед, Сид Хэйг, Маэстро Харрелл
О фильме: Четверо мужчин отправляются в отдаленные земли Дикого Запада, чтобы спасти группу пленных из пещер каннибалов.

Раздача от:
Автор рипа: HRIME
Сэмпл: скачать
Формат: AVI
Качество: BDRip (источник: BD-Remux - ExKinoRay / 1080p)
Кодек: XviD, build 67 codec
Видео: 720 x 304; 23.976 fps; 1902 kbps; 0.362 bit/pixel
Аудио #1: RUS AC3 Dolby Digital; 448 Kbps; 6 channels; 48 KHz
Аудио #2: RUS AC3 Dolby Digital; 448 Kbps; 6 channels; 48 KHz // AVO.Vizgunov / отдельно
Аудио #3: ENG AC3 Dolby Digital; 448 Kbps; 6 channels; 48 KHz / отдельно
Размер: 2230 Mb (1/2 DVD)--

Скриншоты


Media Info

Код:General
Complete name : Kostyanoi.Tomagavk.2015.RUS.BDRip.XviD.AC3.-HQ-ViDEO.avi
Format : AVI
Format/Info : Audio Video Interleave
Format profile : OpenDML
File size : 2.18 GiB
Duration : 2h 12mn
Overall bit rate : 2 361 Kbps
Movie name : Bone Tomahawk /2015/ S. Craig Zahler
Director : HRIME
Writing application : VirtualDubMod 1.5.10.2 (build 2542/release)
Original source form/Name : Movie
Copyright : HQ-ViDEO
Comment : 02.02.2019
Video
ID : 0
Format : MPEG-4 Visual
Format profile : Advanced Simple@L5
Format settings, BVOP : 1
Format settings, QPel : No
Format settings, GMC : No warppoints
Format settings, Matrix : Custom
Codec ID : XVID
Codec ID/Hint : XviD
Duration : 2h 12mn
Bit rate : 1 902 Kbps
Width : 720 pixels
Height : 304 pixels
Display aspect ratio : 2.35:1
Frame rate : 23.976 fps
Color space : YUV
Chroma subsampling : 4:2:0
Bit depth : 8 bits
Scan type : Progressive
Compression mode : Lossy
Bits/(Pixel*Frame) : 0.362
Stream size : 1.75 GiB (81%)
Writing library : XviD 67
Audio
ID : 1
Format : AC-3
Format/Info : Audio Coding 3
Mode extension : CM (complete main)
Codec ID : 2000
Duration : 2h 12mn
Bit rate mode : Constant
Bit rate : 448 Kbps
Channel(s) : 6 channels
Channel positions : Front: L C R, Side: L R, LFE
Sampling rate : 48.0 KHz
Bit depth : 16 bits
Compression mode : Lossy
Stream size : 423 MiB (19%)
Alignment : Split accross interleaves
Interleave, duration : 42 ms (1.00 video frame)
Interleave, preload duration : 500 ms

Если ваш рейтинг упадет ниже 0,3, вы не сможете скачивать торренты! Подробнее о рейтинге.

[cybertorrent.ru].t116.torrent 
Торрент: Зарегистрирован [ 2019-03-18 10:04 ] · B457E6CCE3F9AB209C8082357AC75544710791A6

Скачать .torrent

Скачать

16 KB

Статус: проверено
Скачан: 0 раз
Размер: 3,01 GB
terms.php
[Профиль] [ЛС]
Показать сообщения:    
Ответить на тему

Текущее время: 24-Апр 18:31

Часовой пояс: UTC ± 0



Вы не можете начинать темы
Вы не можете отвечать на сообщения
Вы не можете редактировать свои сообщения
Вы не можете удалять свои сообщения
Вы не можете голосовать в опросах
Вы не можете прикреплять файлы к сообщениям
Вы можете скачивать файлы