До первой крови (Владимир Фокин) [1989, драма, детский, приключения, DVDRip, AVC]

Ответить на тему
Статистика раздачи
Размер:  1,66 GB   |    Зарегистрирован:  5 месяцев 30 дней   |    Скачан:  0 раз

Полного источника не было: Никогда

   
 
Автор Сообщение

Leonard ®

Пол: Не указан

Стаж: 6 месяцев 5 дней

Сообщений: 58

Создавать темы 18-Мар-2019 10:02

[Цитировать]

До первой крови
Жанр: драма, детский, приключения
Год выпуска: 1989
Продолжительность: 01:21:47
Режиссёр: Владимир Фокин
В ролях: Андрей Некрасов, Павел Кулаков, Виктор Матин, Константин Ефремов, Борис Деревягин, Андрей Кашуба, Андрей Петров, Эдгар Сентельяс, Андрей Юренев, Алла Плоткина, Николай Крушевский, Наталья Громушкина, Ольга Жилкина, Николай Погодин
Описание: В пионерском лагере дети играют в традиционную военно-спортивную игру "Зарница". У всех на плечах бумажные погоны — главный символ в этой игре. Если противник их сорвет — ты «убит». Жестокость ненастоящей войны делает детей озлобленными и одержимыми…
Сэмпл
Качество видео: DVDRip (исходник)
Формат видео: MKV
Видео: H.264 (AVC), 688x482 (3:2), 25 fps, 2662 Kb/s
Аудио: стерео, AC3, 192 Kb/s, 48 кГц, 16 бит

MediaInfo

Код:Общее
Уникальный идентификатор : 32140228624439736997559115331987476410 (0x182DFB9D8C066A6C26ED13072B0A8FBA)
Полное имя : /Volumes/Main2/torrents/uploads_data_my/rutracker/video/До первой крови [1989].mkv
Формат : Matroska
Версия формата : Version 4 / Version 2
Размер файла : 1,66 Гбайт
Продолжительность : 1 ч. 21 м.
Общий поток : 2911 Кбит/сек
Дата кодирования : UTC 2018-05-10 14:21:39 / UTC 2018-05-09T14:49:10Z
Программа кодирования : mkvmerge v23.0.0 ('The Bride Said No') 64-bit
Библиотека кодирования : libebml v1.3.6 + libmatroska v1.4.9 / Lavf57.7.2
Видео
Идентификатор : 1
Формат : AVC
Формат/Информация : Advanced Video Codec
Профиль формата : High@L3.1
Параметр CABAC формата : Да
Параметр ReFrames формата : 12 кадров
Идентификатор кодека : V_MPEG4/ISO/AVC
Продолжительность : 1 ч. 21 м.
Битрейт : 2661 Кбит/сек
Ширина : 688 пикселей
Высота : 482 пикселя
Соотношение сторон : 3:2
Соотношение сторон в оригинале : 3:2
Режим частоты кадров : Постоянный
Частота кадров : 25,000 кадров/сек
Цветовое пространство : YUV
Субдискретизация насыщенности : 4:2:0
Битовая глубина : 8 бит
Тип развёртки : Прогрессивная
Бит/(Пиксели*Кадры) : 0.321
Размер потока : 1,52 Гбайт (91%)
Библиотека кодирования : x264 core 155 r2893 b00bcaf
Настройки программы : cabac=1 / ref=12 / deblock=1:-2:-2 / analyse=0x3:0x133 / me=umh / subme=11 / psy=1 / psy_rd=1.10:0.20 / mixed_ref=1 / me_range=28 / chroma_me=1 / trellis=2 / 8x8dct=1 / cqm=0 / deadzone=21,11 / fast_pskip=1 / chroma_qp_offset=-3 / threads=6 / lookahead_threads=1 / sliced_threads=0 / nr=0 / decimate=0 / interlaced=0 / bluray_compat=0 / constrained_intra=0 / bframes=10 / b_pyramid=2 / b_adapt=2 / b_bias=0 / direct=3 / weightb=1 / open_gop=0 / weightp=2 / keyint=250 / keyint_min=25 / scenecut=40 / intra_refresh=0 / rc_lookahead=60 / rc=crf / mbtree=1 / crf=19.0 / qcomp=0.60 / qpmin=0 / qpmax=69 / qpstep=4 / ip_ratio=1.40 / aq=1:0.70
Язык : Russian
Default : Да
Forced : Нет
Цветовой диапазон : Limited
Основные цвета : BT.601 PAL
Характеристики трансфера : BT.709
Коэффициенты матрицы : BT.601
Statistics Tags Issue : mkvmerge v23.0.0 ('The Bride Said No') 64-bit 2018-05-10 14:21:39 / mkvmerge v23.0.0 ('The Bride Said No') 64-bit 2018-05-10 14:21:39 / UTC 2018-05-09T14:49:10Z
FromStats_BitRate : 2716857
FromStats_Duration : 01:21:47.400000000
FromStats_FrameCount : 122685
FromStats_StreamSize : 1666588265
Аудио
Идентификатор : 2
Формат : AC-3
Формат/Информация : Audio Coding 3
Параметр Endianness формата : Big
Идентификатор кодека : A_AC3
Продолжительность : 1 ч. 21 м.
Вид битрейта : Постоянный
Битрейт : 192 Кбит/сек
Каналы : 2 канала
Расположение каналов : Front: L R
Частота : 48,0 КГц
Частота кадров : 31,250 кадров/сек (1536 spf)
Битовая глубина : 16 бит
Метод сжатия : С потерями
Задержка видео : -80 мс.
Размер потока : 112 Мбайт (7%)
Язык : Russian
Service kind : Complete Main
Default : Да
Forced : Нет
Statistics Tags Issue : mkvmerge v23.0.0 ('The Bride Said No') 64-bit 2018-05-10 14:21:39 / mkvmerge v23.0.0 ('The Bride Said No') 64-bit 2018-05-10 14:21:39 / UTC 2018-05-09T14:49:10Z
FromStats_BitRate : 192000
FromStats_Duration : 01:21:47.296000000
FromStats_FrameCount : 153353
FromStats_StreamSize : 117775104
Меню
00:00:00.080 : :Chapter 1
00:00:43.760 : :Chapter 2
00:20:08.880 : :Chapter 3
00:41:36.080 : :Chapter 4
01:11:18.160 : :Chapter 5

Скриншоты

[cybertorrent.ru].t117.torrent 
Торрент: Зарегистрирован [ 2019-03-18 10:04 ] · 27ADDD507F4DE86B36587D4348957595AEB63A2A

Скачать .torrent

Скачать

17 KB

Статус: проверено
Скачан: 0 раз
Размер: 1,66 GB
terms.php
[Профиль] [ЛС]
Показать сообщения:    
Ответить на тему

Текущее время: 17-Сен 19:20

Часовой пояс: UTC ± 0



Вы не можете начинать темы
Вы не можете отвечать на сообщения
Вы не можете редактировать свои сообщения
Вы не можете удалять свои сообщения
Вы не можете голосовать в опросах
Вы не можете прикреплять файлы к сообщениям
Вы можете скачивать файлы

Партнеры

Выражаем благодарность всем людям, внесшим вклад в наш сайт в далёком прошлом. Мы помним Вас, гордимся Вами и ждём Вас обратно!

Интересное в сети