Если верить Лопотухину... (Михаил Козаков) [1983, комедия, семейный, DVB, AVC]

Ответить на тему
Статистика раздачи
Размер:  1,59 GB   |    Зарегистрирован:  6 месяцев   |    Скачан:  0 раз

Полного источника не было: Никогда

   
 
Автор Сообщение

Leonard ®

Пол: Не указан

Стаж: 6 месяцев 6 дней

Сообщений: 58

Создавать темы 18-Мар-2019 10:02

[Цитировать]

Если верить Лопотухину...
Жанр: комедия, семейный
Год выпуска: 1983
Продолжительность: 01:05:48 + 01:00:55
Режиссёр: Михаил Козаков
В ролях: Григорий Евсеев, Леонид Броневой, Светлана Крючкова, Борислав Брондуков, Василий Арканов, Наталья Збруева, Максим Кондратьев, Антон Наркевич, Максим Широков, Иван Уфимцев, Виталий Леонов, Александр Варакин, Анна Ардова, Елена Воронина, Ирина Гольцова
Описание: «Если верить Лопотухину» — двухсерийный художественный фильм Михаила Козакова, поставленный по пьесе Александра Хмелика «Гуманоид в небе мчится», рассказывающий о весьма неординарных событиях, которые произошли в школе после того, как Вася Лопотухин из-за встречи с инопланетянами опоздал на урок…
Доп. информация: Запись с канала Родное кино, качество поинтереснее лицензионного двд(который по моему мнению вообще несмотрибелен)
Сэмпл: https://yadi.sk/i/DEkoZ96d3XqJzv
Качество видео: DVB
Формат видео: TS
Видео: Mpeg Video AVC, 720x576, 4:3, ~1626 Кбит/сек, 25 кадров/сек
Аудио: Mpeg Audio MP2, 192 kbps, 48Khz, 2Ch

MediaInfo

Общее
Идентификатор : 1 (0x1)
Полное имя : H:\Если верить Лопотухину(1983)\Если верить Лопотухину (1-я серия).ts
Формат : MPEG-TS
Размер файла : 901 Мбайт
Продолжительность : 1 ч. 5 м.
Режим общего битрейта : Переменный
Общий поток : 1914 Кбит/сек
Видео
Идентификатор : 256 (0x100)
Идентификатор меню : 1 (0x1)
Формат : AVC
Формат/Информация : Advanced Video Codec
Профиль формата : High@L3
Настройки формата : CABAC / 4 Ref Frames
Параметр CABAC формата : Да
Параметр RefFrames формата : 4 кадра
Идентификатор кодека : 27
Продолжительность : 1 ч. 5 м.
Битрейт : 1626 Кбит/сек
Ширина : 720 пикселей
Высота : 576 пикселей
Соотношение сторон : 4:3
Частота кадров : 25,000 кадров/сек
Стандарт вещания : Component
Цветовое пространство : YUV
Субдискретизация насыщенности : 4:2:0
Битовая глубина : 8 бит
Тип развёртки : Чересстрочная
Метод сохранения типа развёртки : Раздельные поля
Порядок развёртки : Верхнее поле первое
Бит/(Пиксели*Кадры) : 0.157
Размер потока : 765 Мбайт (85%)
Цветовой диапазон : Limited
Основные цвета : BT.601 PAL
Характеристики трансфера : BT.470 System B/G
Коэффициенты матрицы : BT.470 System B/G
Аудио
Идентификатор : 257 (0x101)
Идентификатор меню : 1 (0x1)
Формат : MPEG Audio
Версия формата : Version 1
Профиль формата : Layer 2
Идентификатор кодека : 3
Продолжительность : 1 ч. 5 м.
Вид битрейта : Постоянный
Битрейт : 192 Кбит/сек
Каналы : 2 канала
Частота : 48,0 КГц
Частота кадров : 41,667 кадра/сек (1152 SPF)
Метод сжатия : С потерями
Размер потока : 90,4 Мбайт (10%)
Язык : Russian

Скриншот c названием фильма

[cybertorrent.ru].t120.torrent 
Торрент: Зарегистрирован [ 2019-03-18 10:04 ] · 1260FA997B042E722BF53F52345D54D241C6EFB4

Скачать .torrent

Скачать

17 KB

Статус: проверено
Скачан: 0 раз
Размер: 1,59 GB
terms.php
[Профиль] [ЛС]
Показать сообщения:    
Ответить на тему

Текущее время: 19-Сен 04:06

Часовой пояс: UTC ± 0



Вы не можете начинать темы
Вы не можете отвечать на сообщения
Вы не можете редактировать свои сообщения
Вы не можете удалять свои сообщения
Вы не можете голосовать в опросах
Вы не можете прикреплять файлы к сообщениям
Вы можете скачивать файлы

Партнеры

Выражаем благодарность всем людям, внесшим вклад в наш сайт в далёком прошлом. Мы помним Вас, гордимся Вами и ждём Вас обратно!

Интересное в сети