Абсолютно чёрное / Кровавая тень / Кровавая тень прошлого / Solamente nero / The Blood Stained Shadow (Антонио Бидо / Antonio Bido) [1978, Италия, триллер, детектив, джалло, BDRip] AVO (Сергей Кузнецов)

Ответить на тему
Статистика раздачи
Размер:  1,46 GB   |    Зарегистрирован:  3 месяца 29 дней   |    Скачан:  0 раз

Полного источника не было: Никогда

   
 
Автор Сообщение

serzh ®

Пол: Не указан

Стаж: 4 месяца 5 дней

Сообщений: 332

Создавать темы 19-Мар-2019 18:30

[Цитировать]

Абсолютно чёрное / Кровавая тень / Кровавая тень прошлого / Solamente nero / The Blood Stained Shadow
Страна: Италия
Жанр: триллер, детектив, джалло
Год выпуска: 1978
Продолжительность: 01:48:53
Перевод: Авторский (одноголосый закадровый) Сергей Кузнецов
Субтитры: нет
Режиссер: Антонио Бидо / Antonio Bido
В ролях: Лино Каполиккьо, Стефания Казини, Крэйг Хилл, Массимо Серато, Жюльет Майниель, Лаура Нуччи, Аттилио Дузе, Джанфранко Булло
Описание: Погостить к старшему брату-священнику в Венецию приезжает молодой профессор Стефано Д`Аркангело. Но не успел он обжиться в скромной обители, как брат становится свидетелем убийства местной женщины-медиума, после которого неизвестный начинает угрожать ему в письменной форме. Решив помочь религиозному родственнику, Стефано начинает собственное расследование, во время которого трупов, разумеется, прибывает, но усилия молодого человека в конце концов дают свои плоды. Вот только воспользоваться ими, по сути дела, уже и некому…
Доп. информация: Выражаю огромную благодарность Нордеру за синхронизацию дорожки с Кузнецовым. За дорогу благодарим m.mamichev

Сэмпл: http://multi-up.com/1226754
Качество видео: BDRip (Исходник BDRemux 1080p)
Формат видео: AVI
Видео: XviD 73, 720x384, (1,85:1), 23,976 fps, 1688 Кбит/с, 8 бит, 0.25 bit/pixel
Аудио: Русский (АС3, 2 ch (Front: L R), 48,0 KHz, 224 Kbps)

MediaInfo

Общее
Полное имя : D:\Фильмы на трекер\Кровавая тень прошлого (триллер, детектив 1978 год).avi
Формат : AVI
Формат/Информация : Audio Video Interleave
Размер файла : 1,46 Гбайт
Продолжительность : 1 ч. 48 м.
Общий поток : 1921 Кбит/сек
Программа кодирования : VirtualDubMod 1.5.10.2 (build 2540/release)
Библиотека кодирования : VirtualDubMod build 2540/release
Видео
Идентификатор : 0
Формат : MPEG-4 Visual
Профиль формата : Advanced Simple@L5
Параметр BVOP формата : 2
Параметр QPel формата : Нет
Параметр GMC формата : Без точки перехода
Параметр матрицы формата : Выборочная
Идентификатор кодека : XVID
Идентификатор кодека/Подсказка : XviD
Продолжительность : 1 ч. 48 м.
Битрейт : 1688 Кбит/сек
Ширина : 720 пикселей
Высота : 384 пикселя
Соотношение сторон : 1,85:1
Частота кадров : 23,976 (23976/1000) кадра/сек
Цветовое пространство : YUV
Субдискретизация насыщенности : 4:2:0
Битовая глубина : 8 бит
Тип развёртки : Прогрессивная
Метод сжатия : С потерями
Бит/(Пиксели*Кадры) : 0.255
Размер потока : 1,28 Гбайт (88%)
Библиотека кодирования : XviD 73
Аудио
Идентификатор : 1
Формат : AC-3
Формат/Информация : Audio Coding 3
Расширение режима : CM (complete main)
Параметр Endianness формата : Big
Идентификатор кодека : 2000
Продолжительность : 1 ч. 48 м.
Вид битрейта : Постоянный
Битрейт : 224 Кбит/сек
Каналы : 2 канала
Расположение каналов : Front: L R
Частота : 48,0 КГц
Частота кадров : 31,250 кадров/сек (1536 spf)
Метод сжатия : С потерями
Размер потока : 174 Мбайт (12%)
Выравнивание : Разделение по промежуткам
Продолжительность промежутка : 42 мс. (1,00 видеокадр)
Время предзагрузки промежутка : 500 мс.

Скриншот c названием фильма

Скриншоты

[cybertorrent.ru].t1206.torrent 
Торрент: Зарегистрирован [ 2019-03-19 18:34 ] · 84740ECDE86A217D64BDA709877F6C3312FBB267

Скачать .torrent

Скачать

15 KB

Статус: проверено
Скачан: 0 раз
Размер: 1,46 GB
terms.php
[Профиль] [ЛС]
Показать сообщения:    
Ответить на тему

Текущее время: 18-Июл 10:52

Часовой пояс: UTC ± 0



Вы не можете начинать темы
Вы не можете отвечать на сообщения
Вы не можете редактировать свои сообщения
Вы не можете удалять свои сообщения
Вы не можете голосовать в опросах
Вы не можете прикреплять файлы к сообщениям
Вы можете скачивать файлы