Боярышник (Мурат Омаров) [1981, драма, DVB]

Ответить на тему
Статистика раздачи
Размер:  1,09 GB   |    Зарегистрирован:  5 месяцев 30 дней   |    Скачан:  0 раз

Полного источника не было: Никогда

   
 
Автор Сообщение

edich ®

Пол: Не указан

Стаж: 6 месяцев 5 дней

Сообщений: 173

Создавать темы 18-Мар-2019 10:02

[Цитировать]

Боярышник Жанр: драма
Студия: Казахфильм
Продолжительность: 01:04:50
Год выпуска: 1981-Режиссёр: Мурат Омаров
В ролях: Нуржуман Ихтимбаев, Мейрман Нурекеев, Тамара Косубаева, Раиса Мухамедьярова, С. Абулгазин, А. Мусабекова, Есболган Жайсанбаев, Алимгазы Райнбеков, Мулюк Суртубаев-Описание: О советском человеке, его честности, непримиримости со злом. По мотивам рассказа О. Сарсенбаева «Спи спокойно, ревизор».-
Семпл: https://www.sendspace.com/file/tatq2d-Качество: DVB [SARYARQA] (эфир 23.06.2018)
Формат: TS
Видео: AVC, 720x576 (4:3) @ 785x576, 25 fps, ~2095 kbps, 0.202 bit/pixel
Аудио: [RUS] MP2, 48 kHz, 2 ch, 192 kbps

Mediainfo

General
ID : 1 (0x1)
Complete name : F:\Боярышник (1981) [SARYARQA].ts
Format : MPEG-TS
File size : 1.09 GiB
Duration : 1 h 4 min
Overall bit rate mode : Variable
Overall bit rate : 2 408 kb/s
Video
ID : 67 (0x43)
Menu ID : 1 (0x1)
Format : AVC
Format/Info : Advanced Video Codec
Format profile : High@L3
Format settings : CABAC / 3 Ref Frames
Format settings, CABAC : Yes
Format settings, ReFrames : 3 frames
Codec ID : 27
Duration : 1 h 4 min
Bit rate : 2 095 kb/s
Width : 720 pixels
Height : 576 pixels
Display aspect ratio : 4:3
Frame rate : 25.000 FPS
Standard : Component
Color space : YUV
Chroma subsampling : 4:2:0
Bit depth : 8 bits
Scan type : Interlaced
Scan type, store method : Separated fields
Scan order : Top Field First
Bits/(Pixel*Frame) : 0.202
Stream size : 972 MiB (87%)
Color range : Limited
Color primaries : BT.601 PAL
Transfer characteristics : BT.470 System B/G
Matrix coefficients : BT.470 System B/G
Audio
ID : 68 (0x44)
Menu ID : 1 (0x1)
Format : MPEG Audio
Format version : Version 1
Format profile : Layer 2
Codec ID : 3
Duration : 1 h 4 min
Bit rate mode : Constant
Bit rate : 192 kb/s
Channel(s) : 2 channels
Sampling rate : 48.0 kHz
Frame rate : 41.667 FPS (1152 SPF)
Compression mode : Lossy
Stream size : 89.1 MiB (8%)
Language : English

Скриншоты

[cybertorrent.ru].t121.torrent 
Торрент: Зарегистрирован [ 2019-03-18 10:04 ] · E34EFB922E1FC938C3372C33310504F2A1073E5C

Скачать .torrent

Скачать

11 KB

Статус: проверено
Скачан: 0 раз
Размер: 1,09 GB
terms.php
[Профиль] [ЛС]
Показать сообщения:    
Ответить на тему

Текущее время: 17-Сен 18:56

Часовой пояс: UTC ± 0



Вы не можете начинать темы
Вы не можете отвечать на сообщения
Вы не можете редактировать свои сообщения
Вы не можете удалять свои сообщения
Вы не можете голосовать в опросах
Вы не можете прикреплять файлы к сообщениям
Вы можете скачивать файлы

Партнеры

Выражаем благодарность всем людям, внесшим вклад в наш сайт в далёком прошлом. Мы помним Вас, гордимся Вами и ждём Вас обратно!

Интересное в сети