Адаптация / Сезон: 2 / Серии: 1-3 из 17 (Александр Назаров) [2019, Комедия, WEBRip 720p]

Ответить на тему
Статистика раздачи
Размер:  1,35 GB   |    Зарегистрирован:  1 месяц 2 дня   |    Скачан:  0 раз

Полного источника не было: Никогда

   
 
Автор Сообщение

sss777sss ®

Пол: Не указан

Стаж: 1 месяц 9 дней

Сообщений: 133

Создавать темы 19-Мар-2019 18:30

[Цитировать]

Адаптация- Год выпуска: 2019
Производство: Good Story Media по заказу телеканала ТНТ
Жанр: Комедия
Продолжительность: 00:24:00
Субтитры: нет-Режиссёр: Александр Назаров-В ролях: Леонид Бичевин, Юрий Стоянов, Питер Джейкобсон, Евгения Брик (Хиривская), Артур Бесчастный, Ася Дубровская, Аружан Джазильбекова, Елена Ласкавая, Нелли Уварова, Александр Лыков, Александр Ильин-Описание: Агент ЦРУ Эштон Айви возвращается в Ноябрьск, чтобы забрать в Америку свою любовь Марину, а заодно помочь России защитить свои природные богатства. В Ноябрьске нет Диснейленда, знаменитой картинной галереи или шикарного пляжа. Здесь даже собора со шпилем нет. Тем не менее этот город регулярно посещают сомнительные личности вроде американского шпиона Эштона Айви. Вот и сейчас агент снова в России. Он далеко не новичок, поэтому прибыл в Ноябрьск один, без прикрытия ЦРУ. Главная задача Айви в этот раз — увезти в Штаты свою любимую женщину Марину. Ради нее он готов рискнуть не только своей карьерой, но и жизнью. Сумев улизнуть от бывших коллег, он тут же попал на крючок российских спецслужб. Его оппонент – полковник контрразведки Евдокимов вербует американца и вынуждает принять участие в операции государственной важности. Китайские товарищи положили глаз на российский газ и хотят забрать себе стратегическое месторождение. Ради обретения своей любимой Эштону придется принять предложение, поэтому американцу ничего не остается кроме как сказать: «Служу России!».-Сэмпл: http://multi-up.com/1226830-Релиз-группа: -Качество: WEBRip 720p
Формат: MKV
Видео кодек: H.264
Аудио кодек: AC3
Видео: MPEG-4 AVC, 1280x720 (16:9), 25.000 fps, 2600 Kbps, 0.113 bits/pixel
Аудио: 48 kHz, AC3 Dolby Digital, 2 ch, 192 Kbps-Реклама: Нет-

MI

General
Complete name : Downloads\Adaptaciya.s02.2018.WEB-DL.(720p).ExKinoRay\Adaptaciya.s02.e01.2018.WEB-DL.(720p).ExKinoRay.mkv
Format : Matroska
Format version : Version 2
File size : 488 MiB
Duration : 24mn 48s
Overall bit rate mode : Constant
Overall bit rate : 2 750 Kbps
Encoded date : UTC 2019-03-18 14:16:07
Writing application : mkvmerge v5.8.0 ('No Sleep / Pillow') built on Sep 2 2012 15:37:04
Writing library : libebml v1.2.3 + libmatroska v1.3.0
Video #1
ID : 1
Format : AVC
Format/Info : Advanced Video Codec
Format profile : Baseline@L4.0
Format settings, CABAC : No
Format settings, ReFrames : 4 frames
Format settings, GOP : M=1, N=50
Codec ID : V_MPEG4/ISO/AVC
Duration : 24mn 48s
Bit rate mode : Constant
Bit rate : 2 600 Kbps
Width : 1 280 pixels
Height : 720 pixels
Display aspect ratio : 16:9
Frame rate mode : Constant
Frame rate : 25.000 fps
Standard : PAL
Color space : YUV
Chroma subsampling : 4:2:0
Bit depth : 8 bits
Scan type : Progressive
Bits/(Pixel*Frame) : 0.113
Stream size : 444 MiB (91%)
Language : Russian
Default : Yes
Forced : No
Color primaries : BT.709
Transfer characteristics : BT.709
Matrix coefficients : BT.709
Color range : Limited
Audio #2
ID : 2
Format : AC-3
Format/Info : Audio Coding 3
Mode extension : CM (complete main)
Format settings, Endianness : Big
Codec ID : A_AC3
Duration : 24mn 48s
Bit rate mode : Constant
Bit rate : 192 Kbps
Channel(s) : 2 channels
Channel positions : Front: L R
Sampling rate : 48.0 KHz
Bit depth : 16 bits
Compression mode : Lossy
Stream size : 34.1 MiB (7%)
Language : Russian
Default : Yes
Forced : No

Скриншоты

Внимание! Раздача ведётся путём добавления новых серий:

(1) остановить скачивание,
(2) удалить старый торрент у себя из клиента (старые серии удалять не надо),
(3) скачать новый торрент и запустить его у себя в клиенте вместо старого, при этом указать клиенту путь в старую папку куда и должно происходить скачивание новых серий.
Ваш клиент при этом должен произвести хеширование (проверку) старой папки (если не производит сам - помогите ему сделать это), и будет докачивать только те серии которых у вас ещё нет. Старые серии при этом не удаляются, а продолжают раздаваться!
Eсли вы уже удалили старые серии, то предотвратить повторную закачку старых серий можно, отжав галочку в соответсвующих местах при запуске нового торрента. По возможности, желательно не удалять старые серии как можно дольше чтобы релизёр не столько продолжал раздавать старые серии, а смог сконцентрироваться на новых
.
Предыдущие и альтернативные раздачи

Если ваш рейтинг упадет ниже 0,3, вы не сможете скачивать торренты! Подробнее о рейтинге.

[cybertorrent.ru].t1210.torrent 
Торрент: Зарегистрирован [ 2019-03-19 18:34 ] · C0128B65985102028AADCE599AE741FE529C2DEF

Скачать .torrent

Скачать

14 KB

Статус: проверено
Скачан: 0 раз
Размер: 1,35 GB
terms.php
[Профиль] [ЛС]
Показать сообщения:    
Ответить на тему

Текущее время: 22-Апр 02:29

Часовой пояс: UTC ± 0



Вы не можете начинать темы
Вы не можете отвечать на сообщения
Вы не можете редактировать свои сообщения
Вы не можете удалять свои сообщения
Вы не можете голосовать в опросах
Вы не можете прикреплять файлы к сообщениям
Вы можете скачивать файлы