Крид 2 / Creed II (Стивен Кейпл мл. / Steven Caple Jr.) [2018, США, драма, спорт, BDRip-AVC] Dub (Rus) + Dub (Ukr) + Original (Eng) + Sub (Rus, Eng)

Ответить на тему
Статистика раздачи
Размер:  2,17 GB   |    Зарегистрирован:  3 месяца 29 дней   |    Скачан:  0 раз

Полного источника не было: Никогда

   
 
Автор Сообщение

солнышко ®

Пол: Не указан

Стаж: 4 месяца 5 дней

Сообщений: 460

Создавать темы 19-Мар-2019 18:30

[Цитировать]

Крид 2 / Creed II- Год выхода: 2018
Страна: США
Производство: Metro-Goldwyn-Mayer, New Line Cinema
Жанр: драма, спорт
Продолжительность: 02:10:00
Перевод (1): Профессиональный (полное дублирование) BD EUR - Русский
Перевод (2): Профессиональный (полное дублирование) - Украинский
Субтитры: Русские (форс., полные), Английские (полные, SDH)
Оригинальная аудиодорожка: Английская
Навигация по главам: Есть (12 глав)-Режиссер:
Стивен Кейпл мл. / Steven Caple Jr.-В ролях:
Майкл Б. Джордан (Adonis Johnson), Сильвестр Сталлоне (Rocky Balboa), Тесса Томпсон (Bianca), Филисия Рашад (Mary Anne Creed), Дольф Лундгрен (Ivan Drago), Флориан Мунтяну (Viktor Drago), Расселл Хорнсби (Buddy Marcelle), Вуд Харрис (Tony «Little Duke» Burton), Майло Вентимилья (Robert Balboa), Робби Джонс (Logan Balboa), Андре Уорд (Danny «Stuntman» Wheeler), Бриджит Нильсен (Ludmilla Drago)-О фильме:
Жизнь Адониса Крида превратилась в череду компромиссов. Пока он разрывается между долгом и тренировками к следующему большому бою, судьба готовит ему новую невыполнимую миссию. Будущий противник тесно связан с историей его семьи, что лишь повышает ставки перед предстоящим выходом на ринг. Рокки Бальбоа всегда будет на стороне Крида, и вместе они выйдут на битву с призраками их общего прошлого, выяснят, за что действительно стоит сражаться, и поймут, что нет ничего дороже семьи. Нужно вернуться к истокам, чтобы вспомнить, что именно сделало тебя чемпионом, и что, куда бы ты не бежал, от себя все равно не скрыться.-Релиз групп | | IMDB | КиноПоиск | Сэмпл |-Качество: BDRip-AVC [Creed.II.2018.COMPLETE.BLURAY-LAZERS]
Формат: MKV
Видео: 1152x482 (2.40:1), 23.976 fps, x264 ~1513 kbps avg, 0.114 bit/pixel
Аудио #1: 48 kHz, AC3 Dolby Digital, 3/2 (L,C,R,l,r) + LFE ch, ~448 kbps (RUS)
Аудио #2: 48 kHz, AC3 Dolby Digital, 2/0 (L,R) ch, ~192 kbps avg (UKR)
Аудио #3: 48 kHz, AC3 Dolby Digital, 2/0 (L,R) ch, ~192 kbps avg (ENG)
Формат субтитров: Softsub (.srt*)-

Скриншоты

-

MediaInfo

Код:Полное имя : G:\Creed_II_2018_BDRip-AVC_by_Dalemake.mkv
Формат : Matroska
Версия формата : Version 4 / Version 2
Размер файла : 2,17 Гбайт
Продолжительность : 2 ч. 10 м.
Общий поток : 2392 Кбит/сек
Название фильма : [Creed_II_2018_All_Films_Rutracker.org_by Dalemake]
Дата кодирования : UTC 2019-03-19 09:57:43
Программа кодирования : mkvmerge v6.1.0 ('Old Devil') built on Mar 4 2013 09:10:42
Библиотека кодирования : libebml v1.3.0 + libmatroska v1.4.0
Видео
Идентификатор : 1
Формат : AVC
Формат/Информация : Advanced Video Codec
Профиль формата : High@L4.1
Параметр CABAC формата : Да
Параметр ReFrames формата : 12 кадров
Идентификатор кодека : V_MPEG4/ISO/AVC
Продолжительность : 2 ч. 10 м.
Битрейт : 1513 Кбит/сек
Ширина : 1152 пикселя
Высота : 482 пикселя
Соотношение сторон : 2,40:1
Режим частоты кадров : Постоянный
Частота кадров : 23,976 кадра/сек
Цветовое пространство : YUV
Субдискретизация насыщенности : 4:2:0
Битовая глубина : 8 бит
Тип развёртки : Прогрессивная
Бит/(Пиксели*Кадры) : 0.114
Размер потока : 1,37 Гбайт (63%)
Заголовок : [Creed_II_2018_All_Films_Rutracker.org_by Dalemake]
Библиотека кодирования : x264 core 157 r2935 545de2f
Настройки программы : cabac=1 / ref=12 / deblock=1:-3:-2 / analyse=0x3:0x133 / me=umh / subme=10 / psy=1 / psy_rd=1.00:0.00 / mixed_ref=1 / me_range=24 / chroma_me=1 / trellis=2 / 8x8dct=1 / cqm=0 / deadzone=21,11 / fast_pskip=1 / chroma_qp_offset=-4 / threads=6 / lookahead_threads=1 / sliced_threads=0 / nr=0 / decimate=0 / interlaced=0 / bluray_compat=0 / constrained_intra=0 / bframes=14 / b_pyramid=2 / b_adapt=2 / b_bias=0 / direct=1 / weightb=1 / open_gop=0 / weightp=2 / keyint=240 / keyint_min=23 / scenecut=40 / intra_refresh=0 / rc_lookahead=60 / rc=crf / mbtree=0 / crf=18.9 / qcomp=0.60 / qpmin=0 / qpmax=69 / qpstep=4 / vbv_maxrate=50000 / vbv_bufsize=62500 / crf_max=0.0 / nal_hrd=none / filler=0 / ip_ratio=1.40 / pb_ratio=1.35 / aq=1:1.00
Default : Да
Forced : Нет
Аудио #1
Идентификатор : 2
Формат : AC-3
Формат/Информация : Audio Coding 3
Расширение режима : CM (complete main)
Параметр Endianness формата : Big
Идентификатор кодека : A_AC3
Продолжительность : 2 ч. 10 м.
Вид битрейта : Постоянный
Битрейт : 448 Кбит/сек
Каналы : 6 каналов
Расположение каналов : Front: L C R, Side: L R, LFE
Частота : 48,0 КГц
Метод сжатия : С потерями
Размер потока : 417 Мбайт (19%)
Заголовок : Dub - BD EUR
Язык : Russian
Default : Да
Forced : Нет
Аудио #2
Идентификатор : 3
Формат : AC-3
Формат/Информация : Audio Coding 3
Расширение режима : CM (complete main)
Параметр Endianness формата : Big
Идентификатор кодека : A_AC3
Продолжительность : 2 ч. 10 м.
Вид битрейта : Постоянный
Битрейт : 192 Кбит/сек
Каналы : 2 канала
Расположение каналов : Front: L R
Частота : 48,0 КГц
Метод сжатия : С потерями
Размер потока : 179 Мбайт (8%)
Заголовок : Dub
Язык : Ukrainian
Default : Нет
Forced : Нет
Аудио #3
Идентификатор : 4
Формат : AC-3
Формат/Информация : Audio Coding 3
Расширение режима : CM (complete main)
Параметр Endianness формата : Big
Идентификатор кодека : A_AC3
Продолжительность : 2 ч. 10 м.
Вид битрейта : Постоянный
Битрейт : 192 Кбит/сек
Каналы : 2 канала
Расположение каналов : Front: L R
Частота : 48,0 КГц
Метод сжатия : С потерями
Размер потока : 179 Мбайт (8%)
Заголовок : Original
Язык : English
Default : Нет
Forced : Нет
Текст #1
Идентификатор : 5
Формат : UTF-8
Идентификатор кодека : S_TEXT/UTF8
Идентификатор кодека/Информация : UTF-8 Plain Text
Заголовок : Forced
Язык : Russian
Default : Да
Forced : Да
Текст #2
Идентификатор : 6
Формат : UTF-8
Идентификатор кодека : S_TEXT/UTF8
Идентификатор кодека/Информация : UTF-8 Plain Text
Заголовок : Full
Язык : Russian
Default : Нет
Forced : Нет
Текст #3
Идентификатор : 7
Формат : UTF-8
Идентификатор кодека : S_TEXT/UTF8
Идентификатор кодека/Информация : UTF-8 Plain Text
Заголовок : Full
Язык : English
Default : Нет
Forced : Нет
Текст #4
Идентификатор : 8
Формат : UTF-8
Идентификатор кодека : S_TEXT/UTF8
Идентификатор кодека/Информация : UTF-8 Plain Text
Заголовок : Full - SDH
Язык : English
Default : Нет
Forced : Нет
Меню
00:00:00.000 : en:Chapter 01
00:11:33.150 : en:Chapter 02
00:20:06.163 : en:Chapter 03
00:33:28.006 : en:Chapter 04
00:43:49.126 : en:Chapter 05
00:57:51.885 : en:Chapter 06
01:06:38.869 : en:Chapter 07
01:20:12.515 : en:Chapter 08
01:31:01.956 : en:Chapter 09
01:40:14.216 : en:Chapter 10
01:50:31.458 : en:Chapter 11
02:02:55.910 : en:Chapter 12
-
[cybertorrent.ru].t1213.torrent 
Торрент: Зарегистрирован [ 2019-03-19 18:34 ] · 1DAC63979B27BE7645FBE6D4A5CD99040C71B545

Скачать .torrent

Скачать

11 KB

Статус: проверено
Скачан: 0 раз
Размер: 2,17 GB
terms.php
[Профиль] [ЛС]
Показать сообщения:    
Ответить на тему

Текущее время: 18-Июл 11:50

Часовой пояс: UTC ± 0



Вы не можете начинать темы
Вы не можете отвечать на сообщения
Вы не можете редактировать свои сообщения
Вы не можете удалять свои сообщения
Вы не можете голосовать в опросах
Вы не можете прикреплять файлы к сообщениям
Вы можете скачивать файлы