Гавайи 5-0 / Полиция Гавайев / Hawaii Five-0 / Сезон: 9 / Серии: 1-19 из 20 (Брайан Спайсер, Майя Врвило, Ларри Тенг) [2018, США, боевик, детектив, криминал, WEB-DLRip] MVO (LostFilm) + Original + Sub (Eng)

Ответить на тему
Статистика раздачи
Размер:  15,88 GB   |    Зарегистрирован:  5 месяцев 3 дня   |    Скачан:  0 раз

Полного источника не было: Никогда

   
 
Автор Сообщение

Рамфоринх ®

Пол: Не указан

Стаж: 5 месяцев 12 дней

Сообщений: 355

Создавать темы 20-Мар-2019 17:24

[Цитировать]

Гавайи 5-0 / Полиция Гавайев / Hawaii Five-0 Год выпуска: 2018
Страна: США
Жанр: боевик, детектив, криминал.
Продолжительность: ~00:44:00
Перевод: Профессиональный (многоголосый закадровый) LostFilm
Режиссёр: Брайан Спайсер, Майя Врвило, Ларри Тенг.
В ролях: Алекс О'Локлин, Скотт Каан, Дэниэл Дэ Ким, Грейс Пак, Маси Ока, Тайлор Уайли, Чи МакБрайд, Хорхе Гарсиа, Дэннис Чун, Мишель Бор
Описание: Детектив Стив МакГарретт, бывший морской офицер с массой наград, а теперь полицейский, возвращается в Оаху расследовать убийство отца. Он остается на острове, после того, как губернатор штата Гавайи убедил его возглавить новую команду. Команда будет действовать по его правилам, при поддержке губернатора, без бюрократических проволочек, и с полным иммунитетом, все это — чтобы поймать самую крупную «дичь» в городе.

Качество: WEB-DLRip
Формат: AVI
Видео: XviD, 720x400 (1.80:1), 23.976 fps, ~1999 kbps avg, 0.29 bit/pixel
Аудио 1: Rus 48 kHz, AC3 Dolby Digital, 3/2 (L,C,R,l,r) + LFE ch, ~384 kbps |LostFilm|
Аудио 2: Eng 48 kHz, AC3 Dolby Digital, 3/2 (L,C,R,l,r) + LFE ch, ~384 kbps
Субтитры: Английские
Реклама: Отсутствует

Релиз

Работа со звуком: SerGV
Дорожка №1 получена наложением выделенных голосов на центр оригинального AC3.

MediaInfo

Format : AVI
Format/Info : Audio Video Interleave
File size : 871 MiB
Duration : 43mn 45s
Overall bit rate : 2 782 Kbps
Movie name : Гавайи 5-0 9х01: Кокон
Director : Автор рипа: Бёдвар
Writing application : VirtualDubMod 1.5.10.3 (build 2550/release)
Comment : (WEB-DLRip 400p) 05.10.2018
Video
ID : 0
Format : MPEG-4 Visual
Format profile : Simple@L5
Format settings, BVOP : 1
Format settings, QPel : No
Format settings, GMC : No warppoints
Format settings, Matrix : Default (MPEG)
Codec ID : XVID
Codec ID/Hint : XviD
Duration : 43mn 45s
Bit rate : 2 000 Kbps
Width : 720 pixels
Height : 400 pixels
Display aspect ratio : 16:9
Frame rate : 23.976 (24000/1001) fps
Color space : YUV
Chroma subsampling : 4:2:0
Bit depth : 8 bits
Scan type : Progressive
Compression mode : Lossy
Bits/(Pixel*Frame) : 0.290
Stream size : 626 MiB (72%)
Writing library : XviD 67
Audio #1
ID : 1
Format : AC-3
Format/Info : Audio Coding 3
Mode extension : CM (complete main)
Format settings, Endianness : Big
Codec ID : 2000
Duration : 43mn 45s
Bit rate mode : Constant
Bit rate : 384 Kbps
Channel(s) : 6 channels
Channel positions : Front: L C R, Side: L R, LFE
Sampling rate : 48.0 KHz
Frame rate : 31.250 fps (1536 spf)
Compression mode : Lossy
Stream size : 120 MiB (14%)
Alignment : Split accross interleaves
Interleave, duration : 42 ms (1.00 video frame)
Interleave, preload duratio : 500 ms
Audio #2
ID : 2
Format : AC-3
Format/Info : Audio Coding 3
Mode extension : CM (complete main)
Format settings, Endianness : Big
Codec ID : 2000
Duration : 43mn 45s
Bit rate mode : Constant
Bit rate : 384 Kbps
Channel(s) : 6 channels
Channel positions : Front: L C R, Side: L R, LFE
Sampling rate : 48.0 KHz
Frame rate : 31.250 fps (1536 spf)
Compression mode : Lossy
Stream size : 120 MiB (14%)
Alignment : Split accross interleaves
Interleave, duration : 42 ms (1.00 video frame)
Interleave, preload duratio : 500 ms

Скриншоты

Внимание! Раздача ведётся путём добавления новых серий

Внимание! Раздача ведётся путём добавления новых серий; при каждом добавлении создаётся новый торрент. Чтобы начать докачку новой серии,пользователям необходимо сделать следующее:
(1) остановить скачивание,
(2) удалить старый торрент у себя из клиента (старые серии удалять не надо),
(3) скачать новый торрент и запустить его у себя в клиенте вместо старого, при этом указать клиенту путь в старую папку куда и должнопроисходить скачивание новых серий.
Ваш клиент при этом должен произвести хеширование (проверку) старой папки (если не производит сам - помогите ему сделать это), и будет докачивать только те серии
которых у вас ещё нет. Старые серии при этом не удаляются, а продолжают раздаваться!
Eсли вы уже удалили старые серии, то предотвратить повторную закачку старых серий можно, отжав галочку в соответствующих местах при запуске нового торрента.
По возможности, желательно не удалять старые серии как можно дольше чтобы релизёр не столько продолжал раздавать старые серии, а смог сконцентрироваться на новых.
Предыдущие и альтернативные раздачи

Если ваш рейтинг упадет ниже 0,3, вы не сможете скачивать торренты! Подробнее о рейтинге.

[cybertorrent.ru].t1228.torrent 
Торрент: Зарегистрирован [ 2019-03-20 17:24 ] · B6162C1EC090B478B03649435D535A6E9928A41D

Скачать .torrent

Скачать

43 KB

Статус: проверено
Скачан: 0 раз
Размер: 15,88 GB
terms.php
[Профиль] [ЛС]
Показать сообщения:    
Ответить на тему

Текущее время: 24-Авг 16:01

Часовой пояс: UTC ± 0



Вы не можете начинать темы
Вы не можете отвечать на сообщения
Вы не можете редактировать свои сообщения
Вы не можете удалять свои сообщения
Вы не можете голосовать в опросах
Вы не можете прикреплять файлы к сообщениям
Вы можете скачивать файлы