Зачарованные / Charmed / Сезон: 1 / Серии: 1-15 из 22 (Ванесса Парис, Майкл А. Алловиц, Амин Кадерали) [2018, США, Фэнтези, драма, WEB-DLRip] MVO (LostFilm)

Ответить на тему
Статистика раздачи
Размер:  8,74 GB   |    Зарегистрирован:  5 месяцев 28 дней   |    Скачан:  0 раз

Полного источника не было: Никогда

   
 
Автор Сообщение

Рамфоринх ®

Пол: Не указан

Стаж: 6 месяцев 5 дней

Сообщений: 366

Создавать темы 20-Мар-2019 17:24

[Цитировать]

Зачарованные / Charmed- Год выпуска: 2018
Страна: США
Жанр: Фэнтези, драма
Продолжительность: 00:42:34-Перевод: Профессиональный (многоголосый закадровый) - LostFilm-Режиссёр: Ванесса Парис, Майкл А. Алловиц, Амин Кадерали-В ролях: Мелони Диас, Мадлен Манток, Сара Джеффри, Руперт Эванс, Эллен Тамаки, Сер`Дариус Блэйн, Чарльз Гиллеспи, Джером Ю, Натали Холл-Описание: В центре внимания сюжета оказываются три сестры, каждая из которых по-своему интересна. Мэйси - типичная заучка, которая предпочитает проводить время за учебниками, Мел - активная девушка, продвигающая взгляды феминистического характера. Мэдисон - типичная чирлидерша, обожающая тусы и общение. Главные героини проживают в небольшом студенческом городке, в котором буквально кипит жизнь. Вскоре девушки узнают, что являются потомками настоящих ведьм, что говорит лишь о том, что троица - тоже ведьмы. С этого момента их жизнь переворачивается! Они погружаются в мир магии, колдовства и борьбы с монстрами, демонами и прочими существами.
Сэмпл: http://multi-up.com/1215333
Качество: WEB-DLRip
Формат: AVI
Видео: 720х400 (16:9), 23.976 fps, XviD, 1700 Kbps, 0.24 Bits/Pixel
Аудио: 48 kHz, AC3, 2 ch, 192 Kbps
Субтитры: Отсутствуют-Реклама: Отсутствует-

Список серий

01. Пилот / Pilot
02. Выпустите маму / Let This Mother Out
03. Сладкоежка / Sweet Tooth
04. Изгони своих демонов / Exorcise Your Demons
05. Другая женщина / Other Women
06. Дух Каппы / Kappa Spirit
07. Потеря Серпа / Out of Scythe
08. Кыш, насекомое / Bug a Boo
09. Рождественский ад / Jingle Hell
10. Сохраняй спокойствие и спасай Гарри / Keep Calm and Harry On
11. Ведьма идеально подходит / Witch Perfect
12. Ты для меня мертва / You're Dead to Me
13. Кошмар с безумной пикси / Manic Pixie Nightmare
14. Прикосновение демона / Touched by a Demon
15. Обмены и камни / Switches & Stones

MediaInfo

General
Complete name : Downloads\Charmed.2018.S01\Charmed.S01E01.WEB-DLRip..avi
Format : AVI
Format/Info : Audio Video Interleave
File size : 579 MiB
Duration : 42mn 34s
Overall bit rate : 1 901 Kbps
Writing application : VirtualDubMod 1.5.10.3 | www.virtualdub-fr.org || (build 2550/release)
Writing library : VirtualDubMod build 2550/release
Video #0
ID : 0
Format : MPEG-4 Visual
Format profile : Advanced Simple@L5
Format settings, BVOP : 1
Format settings, QPel : Yes
Format settings, GMC : No warppoints
Format settings, Matrix : Default (MPEG)
Codec ID : XVID
Codec ID/Hint : XviD
Duration : 42mn 34s
Bit rate : 1 700 Kbps
Width : 720 pixels
Height : 400 pixels
Display aspect ratio : 16:9
Frame rate : 23.976 fps
Color space : YUV
Chroma subsampling : 4:2:0
Bit depth : 8 bits
Scan type : Progressive
Compression mode : Lossy
Bits/(Pixel*Frame) : 0.246
Stream size : 518 MiB (89%)
Writing library : XviD 73
Audio #1
ID : 1
Format : AC-3
Format/Info : Audio Coding 3
Mode extension : CM (complete main)
Format settings, Endianness : Big
Codec ID : 2000
Duration : 42mn 34s
Bit rate mode : Constant
Bit rate : 192 Kbps
Channel(s) : 2 channels
Channel positions : Front: L R
Sampling rate : 48.0 KHz
Bit depth : 16 bits
Compression mode : Lossy
Stream size : 58.5 MiB (10%)
Alignment : Split accross interleaves
Interleave, duration : 42 ms (1.00 video frame)
Interleave, preload duration : 500 ms

Скриншоты

Внимание! Раздача ведётся путём добавления новых серий:

(1) остановить скачивание,
(2) удалить старый торрент у себя из клиента (старые серии удалять не надо),
(3) скачать новый торрент и запустить его у себя в клиенте вместо старого, при этом указать клиенту путь в старую папку куда и должно происходить скачивание новых серий.
Ваш клиент при этом должен произвести хеширование (проверку) старой папки (если не производит сам - помогите ему сделать это), и будет докачивать только те серии которых у вас ещё нет. Старые серии при этом не удаляются, а продолжают раздаваться!
Eсли вы уже удалили старые серии, то предотвратить повторную закачку старых серий можно, отжав галочку в соответсвующих местах при запуске нового торрента. По возможности, желательно не удалять старые серии как можно дольше чтобы релизёр не столько продолжал раздавать старые серии, а смог сконцентрироваться на новых
.
Предыдущие и альтернативные раздачи
[cybertorrent.ru].t1231.torrent 
Торрент: Зарегистрирован [ 2019-03-20 17:24 ] · 7FB00EE835B1369049452CF846FAC810B30B5D3A

Скачать .torrent

Скачать

45 KB

Статус: проверено
Скачан: 0 раз
Размер: 8,74 GB
terms.php
[Профиль] [ЛС]
Показать сообщения:    
Ответить на тему

Текущее время: 17-Сен 18:56

Часовой пояс: UTC ± 0



Вы не можете начинать темы
Вы не можете отвечать на сообщения
Вы не можете редактировать свои сообщения
Вы не можете удалять свои сообщения
Вы не можете голосовать в опросах
Вы не можете прикреплять файлы к сообщениям
Вы можете скачивать файлы

Партнеры

Выражаем благодарность всем людям, внесшим вклад в наш сайт в далёком прошлом. Мы помним Вас, гордимся Вами и ждём Вас обратно!

Интересное в сети