Кортик (Николай Калинин) [1973, детский, приключения, DVB]

Ответить на тему
Статистика раздачи
Размер:  7,82 GB   |    Зарегистрирован:  1 месяц 6 дней   |    Скачан:  0 раз

Полного источника не было: Никогда

   
 
Автор Сообщение

Leonard ®

Пол: Не указан

Стаж: 1 месяц 12 дней

Сообщений: 51

Создавать темы 18-Мар-2019 10:02

[Цитировать]

Кортик (3 серии)
12.07.18 торрент обновлен, добавлена 3-я серия
Жанр: детский, приключения
Год выпуска: 1973
Продолжительность: 01:08:29 + 01:10:20 + 01:09:23
Режиссёр: Николай Калинин
В ролях: Зоя Федорова, Эммануил Виторган, Леонид Кмит, Роман Филиппов, Виктор Сергачев, Наталья Чемодурова, Сергей Шевкуненко, Игорь Шульженко, Михаил Голубович, Владимир Дичковский
Описание: Детский приключенческий телефильм по одноименному роману Анатолия Рыбакова. Пионеры 20-х годов пытаются раскрыть тайну морского кортика, хранящего шифрованное послание. Но при этом им приходится то и дело вступать в противостояние с бандитами...
Доп. информация: запись потока *.ts со спутника Экспресс АМ6, 53° в.д., ремукс в *.mkv программой VideoReDo.
Качество видео: DVB
Формат видео: MKV
Видео: MPEG2 Video, 720(1024)x576 (16:9), 25,000 кадров/сек, 5012 Кбит/сек
Аудио: MPEG Audio, 48,0 КГц, 256 Кбит/сек, 2 канала

MediaInfo

Общее
Уникальный идентификатор : 80202048062723197345461674803828869781 (0x3C565A43C3F2BDAD621D1CD885DBCA95)
Полное имя : D:\Torrent\КОРТИК\КОРТИК 1 (Kultura 53).mkv
Формат : Matroska
Версия формата : Version 2
Размер файла : 2,57 Гбайт
Продолжительность : 1 ч. 8 м.
Режим общего битрейта : Переменный
Общий поток : 5375 Кбит/сек
Программа кодирования : Lavf52.64.2
Библиотека кодирования : Lavf52.64.2
Видео
Идентификатор : 1
Формат : MPEG Video
Версия формата : Version 2
Профиль формата : Main@Main
Параметр BVOP формата : Да
Параметр матрицы формата : Выборочная
Параметр GOP формата : M=3, N=15
Структура изображения : Frame
Идентификатор кодека : V_MPEG2
Идентификатор кодека/Информация : MPEG 1 or 2 Video
Продолжительность : 1 ч. 8 м.
Вид битрейта : Переменный
Битрейт : 5012 Кбит/сек
Максимальный битрейт : 15,0 Мбит/сек
Ширина : 720 пикселей
Высота : 576 пикселей
Соотношение сторон : 16:9
Соотношение сторон в оригинале : 16:9
Режим частоты кадров : Постоянный
Частота кадров : 25,000 кадров/сек
Стандарт вещания : PAL
Цветовое пространство : YUV
Субдискретизация насыщенности : 4:2:0
Битовая глубина : 8 бит
Тип развёртки : Чересстрочная
Порядок развёртки : Верхнее поле первое
Метод сжатия : С потерями
Бит/(Пиксели*Кадры) : 0.483
Размер потока : 2,40 Гбайт (93%)
Default : Да
Forced : Нет
Аудио
Идентификатор : 2
Формат : MPEG Audio
Версия формата : Version 1
Профиль формата : Layer 2
Идентификатор кодека : A_MPEG/L2
Идентификатор кодека/Подсказка : MP2
Продолжительность : 1 ч. 8 м.
Вид битрейта : Постоянный
Битрейт : 256 Кбит/сек
Каналы : 2 канала
Частота : 48,0 КГц
Метод сжатия : С потерями
Задержка видео : 18 мс.
Размер потока : 125 Мбайт (5%)
Язык : English
Default : Да
Forced : Нет
Общее
Уникальный идентификатор : 134157000587386364578360776571279409753 (0x64EDB2CECD372589DE3274D083AC8259)
Полное имя : D:\Torrent\КОРТИК\КОРТИК 2 (Kultura 53).mkv
Формат : Matroska
Версия формата : Version 2
Размер файла : 2,64 Гбайт
Продолжительность : 1 ч. 10 м.
Режим общего битрейта : Переменный
Общий поток : 5375 Кбит/сек
Программа кодирования : Lavf52.64.2
Библиотека кодирования : Lavf52.64.2
Видео
Идентификатор : 1
Формат : MPEG Video
Версия формата : Version 2
Профиль формата : Main@Main
Параметр BVOP формата : Да
Параметр матрицы формата : Выборочная
Параметр GOP формата : M=3, N=15
Структура изображения : Frame
Идентификатор кодека : V_MPEG2
Идентификатор кодека/Информация : MPEG 1 or 2 Video
Продолжительность : 1 ч. 10 м.
Вид битрейта : Переменный
Битрейт : 5012 Кбит/сек
Максимальный битрейт : 15,0 Мбит/сек
Ширина : 720 пикселей
Высота : 576 пикселей
Соотношение сторон : 16:9
Соотношение сторон в оригинале : 16:9
Режим частоты кадров : Постоянный
Частота кадров : 25,000 кадров/сек
Стандарт вещания : PAL
Цветовое пространство : YUV
Субдискретизация насыщенности : 4:2:0
Битовая глубина : 8 бит
Тип развёртки : Чересстрочная
Порядок развёртки : Верхнее поле первое
Метод сжатия : С потерями
Бит/(Пиксели*Кадры) : 0.483
Размер потока : 2,46 Гбайт (93%)
Default : Да
Forced : Нет
Аудио
Идентификатор : 2
Формат : MPEG Audio
Версия формата : Version 1
Профиль формата : Layer 2
Идентификатор кодека : A_MPEG/L2
Идентификатор кодека/Подсказка : MP2
Продолжительность : 1 ч. 10 м.
Вид битрейта : Постоянный
Битрейт : 256 Кбит/сек
Каналы : 2 канала
Частота : 48,0 КГц
Метод сжатия : С потерями
Задержка видео : 18 мс.
Размер потока : 129 Мбайт (5%)
Язык : English
Default : Да
Forced : Нет
Общее
Уникальный идентификатор : 8072920426200198953075011766757661669 (0x612C9B50B04213BB40A1CC81A949BE5)
Полное имя : D:\Torrent\КОРТИК\КОРТИК 3 (Kultura 53).mkv
Формат : Matroska
Версия формата : Version 2
Размер файла : 2,61 Гбайт
Продолжительность : 1 ч. 9 м.
Режим общего битрейта : Переменный
Общий поток : 5375 Кбит/сек
Программа кодирования : Lavf52.64.2
Библиотека кодирования : Lavf52.64.2
Видео
Идентификатор : 1
Формат : MPEG Video
Версия формата : Version 2
Профиль формата : Main@Main
Параметр BVOP формата : Да
Параметр матрицы формата : Выборочная
Параметр GOP формата : M=3, N=15
Структура изображения : Frame
Идентификатор кодека : V_MPEG2
Идентификатор кодека/Информация : MPEG 1 or 2 Video
Продолжительность : 1 ч. 9 м.
Вид битрейта : Переменный
Битрейт : 5012 Кбит/сек
Максимальный битрейт : 15,0 Мбит/сек
Ширина : 720 пикселей
Высота : 576 пикселей
Соотношение сторон : 16:9
Соотношение сторон в оригинале : 16:9
Режим частоты кадров : Постоянный
Частота кадров : 25,000 кадров/сек
Стандарт вещания : PAL
Цветовое пространство : YUV
Субдискретизация насыщенности : 4:2:0
Битовая глубина : 8 бит
Тип развёртки : Чересстрочная
Порядок развёртки : Верхнее поле первое
Метод сжатия : С потерями
Бит/(Пиксели*Кадры) : 0.483
Размер потока : 2,43 Гбайт (93%)
Default : Да
Forced : Нет
Аудио
Идентификатор : 2
Формат : MPEG Audio
Версия формата : Version 1
Профиль формата : Layer 2
Идентификатор кодека : A_MPEG/L2
Идентификатор кодека/Подсказка : MP2
Продолжительность : 1 ч. 9 м.
Вид битрейта : Постоянный
Битрейт : 256 Кбит/сек
Каналы : 2 канала
Частота : 48,0 КГц
Метод сжатия : С потерями
Задержка видео : 10 мс.
Размер потока : 127 Мбайт (5%)
Язык : English
Default : Да
Forced : Нет

Если ваш рейтинг упадет ниже 0,3, вы не сможете скачивать торренты! Подробнее о рейтинге.

[cybertorrent.ru].t124.torrent 
Торрент: Зарегистрирован [ 2019-03-18 10:04 ] · 1CF2D2E29AC6ECFC6CEE2E92D4BDA57786B5D7C3

Скачать .torrent

Скачать

40 KB

Статус: проверено
Скачан: 0 раз
Размер: 7,82 GB
terms.php
[Профиль] [ЛС]
Показать сообщения:    
Ответить на тему

Текущее время: 24-Апр 18:58

Часовой пояс: UTC ± 0



Вы не можете начинать темы
Вы не можете отвечать на сообщения
Вы не можете редактировать свои сообщения
Вы не можете удалять свои сообщения
Вы не можете голосовать в опросах
Вы не можете прикреплять файлы к сообщениям
Вы можете скачивать файлы