90-е. Весело и громко / Серии: 1-6 из 21 (Егор Карма) [2018, комедия, WEBRip]

Ответить на тему
Статистика раздачи
Размер:  2,05 GB   |    Зарегистрирован:  5 месяцев 3 дня   |    Скачан:  0 раз

Полного источника не было: Никогда

   
 
Автор Сообщение

sss777sss ®

Пол: Не указан

Стаж: 5 месяцев 12 дней

Сообщений: 410

Создавать темы 20-Мар-2019 17:23

[Цитировать]

90-е. Весело и громко
Год выпуска: 2018
Производство: «Арт Пикчерс Вижн» при участии «БЛЭК БОКС ПРОДАКШН»
Жанр: комедия
Продолжительность: ~00:25:00 серия
Субтитры: нет
Режиссёр: Егор Карма
В ролях: Стася Милославская, Егор Трухин, Константин Фисенко, Юлия Егерева, Филипп Ершов, Роман Курцын, Дмитрий Никулин, Ян Цапник, Нодар Джанелидзе, Софья Евстигнеева, Эдгар Гизатуллин, Алексей Овсянников
Описание: История рассказывает о двух гитаристах Васе и Паше, студентке хорового училища Жене, десантнике Бобе и преподавателе классического вокала Птицыне, которые волей случая объединяются, чтобы создать рок-группу. На пути к славе будущих звёзд ждут криминальные авторитеты, малиновые пиджаки, «новейшие» гаджеты в виде пейджеров и тетрисов и, конечно, всемирно известные кумиры, в числе которых Фредди Меркьюри и Курт Кобейн.

Реклама: Нет.
Кинопоиск
Все раздачи сериала
Sample
Качество: WEBRip - 25Kuzmich
Формат: AVI
Видео кодек: XviD
Аудио кодек: AC3
Видео: 720x400 (1.80:1), 25 fps, XviD ~1700 kbps avg, 0.238 bit/pixel
Аудио: 48.0 kHz, AC3 Dolby Digital, 2/0 (L,R) ch, ~ 192 kbps

Внимание! Раздача ведётся путём добавления новых серий

Раздача ведётся путём добавления новых серий, при каждом добавлении создаётся новый торрент. Чтобы начать докачку новой серии, пользователям необходимо сделать следующее:
- Остановить скачивание.
- Удалить старый торрент у себя из клиента (старые серии удалять не надо).
- Скачать новый торрент и запустить его у себя в клиенте вместо старого, при этом указать клиенту путь в старую папку куда и должно происходить скачивание новых серий.
Ваш клиент при этом должен произвести хеширование (проверку) старой папки (если не производит сам - помогите ему сделать это), и будет докачивать только те серии которых у вас ещё нет. Старые серии при этом не удаляются, а продолжают раздаваться!
Если вы уже удалили старые серии, то предотвратить повторную закачку старых серий можно, отжав галочку в соответствующих местах при запуске нового торрента. По возможности, желательно не удалять старые серии как можно дольше, чтобы релизер не столько продолжал раздавать старые серии, а смог сконцентрироваться на новых.

MI

General
Complete name : D:\90-e.Veselo.i.gromko.2018.WEB-DLRip.25Kuzmich\90-e.Veselo.i.gromko.e01.2018.WEB-DLRip.25Kuzmich.avi
Format : AVI
Format/Info : Audio Video Interleave
File size : 351 MiB
Duration : 25 min 35 s
Overall bit rate : 1 915 kb/s
Writing application : VirtualDubMod 1.5.10.3 | www.virtualdub-fr.org || (build 2550/release)
Writing library : VirtualDubMod build 2550/release
Video
ID : 0
Format : MPEG-4 Visual
Format profile : Advanced Simple@L5
Format settings : BVOP1
Format settings, BVOP : 1
Format settings, QPel : No
Format settings, GMC : No warppoints
Format settings, Matrix : Default (MPEG)
Codec ID : XVID
Codec ID/Hint : XviD
Duration : 25 min 35 s
Bit rate : 1 713 kb/s
Width : 720 pixels
Height : 400 pixels
Display aspect ratio : 16:9
Frame rate : 25.000 FPS
Color space : YUV
Chroma subsampling : 4:2:0
Bit depth : 8 bits
Scan type : Progressive
Compression mode : Lossy
Bits/(Pixel*Frame) : 0.238
Stream size : 314 MiB (89%)
Writing library : XviD 73
Audio
ID : 1
Format : AC-3
Format/Info : Audio Coding 3
Codec ID : 2000
Duration : 25 min 35 s
Bit rate mode : Constant
Bit rate : 192 kb/s
Channel(s) : 2 channels
Channel positions : Front: L R
Sampling rate : 48.0 kHz
Frame rate : 31.250 FPS (1536 SPF)
Bit depth : 16 bits
Compression mode : Lossy
Stream size : 35.2 MiB (10%)
Alignment : Split accross interleaves
Interleave, duration : 40 ms (1.00 video frame)
Interleave, preload duratio : 500 ms
Service kind : Complete Main

Скриншоты


Если ваш рейтинг упадет ниже 0,3, вы не сможете скачивать торренты! Подробнее о рейтинге.

[cybertorrent.ru].t1247.torrent 
Торрент: Зарегистрирован [ 2019-03-20 17:24 ] · B8961414355762CF8C33E4327241DFBEBE208796

Скачать .torrent

Скачать

11 KB

Статус: проверено
Скачан: 0 раз
Размер: 2,05 GB
terms.php
[Профиль] [ЛС]
Показать сообщения:    
Ответить на тему

Текущее время: 24-Авг 16:04

Часовой пояс: UTC ± 0



Вы не можете начинать темы
Вы не можете отвечать на сообщения
Вы не можете редактировать свои сообщения
Вы не можете удалять свои сообщения
Вы не можете голосовать в опросах
Вы не можете прикреплять файлы к сообщениям
Вы можете скачивать файлы