Бронзовая птица (Николай Калинин) [1974, детский, приключения, DVB]

Ответить на тему
Статистика раздачи
Размер:  7,18 GB   |    Зарегистрирован:  2 месяца 7 дней   |    Скачан:  0 раз

Полного источника не было: Никогда

   
 
Автор Сообщение

Leonard ®

Пол: Не указан

Стаж: 2 месяца 13 дней

Сообщений: 54

Создавать темы 18-Мар-2019 10:02

[Цитировать]

Бронзовая птица (3 серии)
17.07.18 торрент обновлен, добавлена 3-я серия
Жанр: детский, приключения
Год выпуска: 1974
Продолжительность: 01:04:16 + 01:03:33 + 01:03:28
Режиссёр: Николай Калинин
В ролях: Сергей Шевкуненко, Владимир Дичковский, Игорь Шульженко, Мария Капнист, А. Кузьмин, Виктор Чекмарев, Любовь Малиновская, Олег Севостьянов, Виталий Быков, В. Белохвостик, Ю. Сидоров, Светлана Лапковская, Анатолий Дашкевич, Игорь Кондратович, Сергей Лисиченок, Марина Бойцова, Саша Примако, Владимир Папкович, Игорь Гущин
Описание: продолжение фильма "Кортик".
В 20-е годы дети ищут спрятанные еще до гражданской войны сокровища, секрет которых хранит бронзовая статуэтка хищной птицы
Доп. информация: запись потока *.ts со спутника Экспресс АМ6, 53° в.д., ремукс в *.mkv программой VideoReDo.
Качество видео: DVB
Формат видео: MKV
Видео: MPEG2 Video, 720(1024)x576 (16:9), 25,000 кадров/сек, 5012 Кбит/сек
Аудио: MPEG Audio, 48,0 КГц, 256 Кбит/сек, 2 канала

MediaInfo

Общее
Уникальный идентификатор : 24970629477683581452090933665322984707 (0x12C92B15FAB0FE9185FF2461B4636503)
Полное имя : D:\Torrent\БРОНЗОВАЯ ПТИЦА\БРОНЗОВАЯ ПТИЦА 1 (Kultura 53).mkv
Формат : Matroska
Версия формата : Version 2
Размер файла : 2,41 Гбайт
Продолжительность : 1 ч. 4 м.
Режим общего битрейта : Переменный
Общий поток : 5375 Кбит/сек
Программа кодирования : Lavf52.64.2
Библиотека кодирования : Lavf52.64.2
Видео
Идентификатор : 1
Формат : MPEG Video
Версия формата : Version 2
Профиль формата : Main@Main
Параметр BVOP формата : Да
Параметр матрицы формата : Выборочная
Параметр GOP формата : M=3, N=15
Структура изображения : Frame
Идентификатор кодека : V_MPEG2
Идентификатор кодека/Информация : MPEG 1 or 2 Video
Продолжительность : 1 ч. 4 м.
Вид битрейта : Переменный
Битрейт : 5012 Кбит/сек
Максимальный битрейт : 15,0 Мбит/сек
Ширина : 720 пикселей
Высота : 576 пикселей
Соотношение сторон : 16:9
Соотношение сторон в оригинале : 16:9
Режим частоты кадров : Постоянный
Частота кадров : 25,000 кадров/сек
Стандарт вещания : PAL
Цветовое пространство : YUV
Субдискретизация насыщенности : 4:2:0
Битовая глубина : 8 бит
Тип развёртки : Чересстрочная
Порядок развёртки : Верхнее поле первое
Метод сжатия : С потерями
Бит/(Пиксели*Кадры) : 0.483
Размер потока : 2,25 Гбайт (93%)
Default : Да
Forced : Нет
Аудио
Идентификатор : 2
Формат : MPEG Audio
Версия формата : Version 1
Профиль формата : Layer 2
Идентификатор кодека : A_MPEG/L2
Идентификатор кодека/Подсказка : MP2
Продолжительность : 1 ч. 4 м.
Вид битрейта : Постоянный
Битрейт : 256 Кбит/сек
Каналы : 2 канала
Частота : 48,0 КГц
Метод сжатия : С потерями
Задержка видео : 10 мс.
Размер потока : 118 Мбайт (5%)
Язык : English
Default : Да
Forced : Нет
Общее
Уникальный идентификатор : 155578220976677216836205826084226730556 (0x750B4683B7A628E5CB7CA8906A680A3C)
Полное имя : D:\Torrent\БРОНЗОВАЯ ПТИЦА\БРОНЗОВАЯ ПТИЦА 2 (Kultura 53).mkv
Формат : Matroska
Версия формата : Version 2
Размер файла : 2,39 Гбайт
Продолжительность : 1 ч. 3 м.
Режим общего битрейта : Переменный
Общий поток : 5375 Кбит/сек
Программа кодирования : Lavf52.64.2
Библиотека кодирования : Lavf52.64.2
Видео
Идентификатор : 1
Формат : MPEG Video
Версия формата : Version 2
Профиль формата : Main@Main
Параметр BVOP формата : Да
Параметр матрицы формата : Выборочная
Параметр GOP формата : M=3, N=15
Структура изображения : Frame
Идентификатор кодека : V_MPEG2
Идентификатор кодека/Информация : MPEG 1 or 2 Video
Продолжительность : 1 ч. 3 м.
Вид битрейта : Переменный
Битрейт : 5012 Кбит/сек
Максимальный битрейт : 15,0 Мбит/сек
Ширина : 720 пикселей
Высота : 576 пикселей
Соотношение сторон : 16:9
Соотношение сторон в оригинале : 16:9
Режим частоты кадров : Постоянный
Частота кадров : 25,000 кадров/сек
Стандарт вещания : PAL
Цветовое пространство : YUV
Субдискретизация насыщенности : 4:2:0
Битовая глубина : 8 бит
Тип развёртки : Чересстрочная
Порядок развёртки : Верхнее поле первое
Метод сжатия : С потерями
Бит/(Пиксели*Кадры) : 0.483
Размер потока : 2,23 Гбайт (93%)
Default : Да
Forced : Нет
Аудио
Идентификатор : 2
Формат : MPEG Audio
Версия формата : Version 1
Профиль формата : Layer 2
Идентификатор кодека : A_MPEG/L2
Идентификатор кодека/Подсказка : MP2
Продолжительность : 1 ч. 3 м.
Вид битрейта : Постоянный
Битрейт : 256 Кбит/сек
Каналы : 2 канала
Частота : 48,0 КГц
Метод сжатия : С потерями
Задержка видео : 10 мс.
Размер потока : 116 Мбайт (5%)
Язык : English
Default : Да
Forced : Нет
Общее
Уникальный идентификатор : 265194761839758019410725408155150772694 (0xC782A73E281153B369FA9DFC96F6E9D6)
Полное имя : D:\Torrent\БРОНЗОВАЯ ПТИЦА\БРОНЗОВАЯ ПТИЦА 3 (Kultura 53).mkv
Формат : Matroska
Версия формата : Version 2
Размер файла : 2,38 Гбайт
Продолжительность : 1 ч. 3 м.
Режим общего битрейта : Переменный
Общий поток : 5375 Кбит/сек
Программа кодирования : Lavf52.64.2
Библиотека кодирования : Lavf52.64.2
Видео
Идентификатор : 1
Формат : MPEG Video
Версия формата : Version 2
Профиль формата : Main@Main
Параметр BVOP формата : Да
Параметр матрицы формата : Выборочная
Параметр GOP формата : M=3, N=15
Структура изображения : Frame
Идентификатор кодека : V_MPEG2
Идентификатор кодека/Информация : MPEG 1 or 2 Video
Продолжительность : 1 ч. 3 м.
Вид битрейта : Переменный
Битрейт : 5012 Кбит/сек
Максимальный битрейт : 15,0 Мбит/сек
Ширина : 720 пикселей
Высота : 576 пикселей
Соотношение сторон : 16:9
Соотношение сторон в оригинале : 16:9
Режим частоты кадров : Постоянный
Частота кадров : 25,000 кадров/сек
Стандарт вещания : PAL
Цветовое пространство : YUV
Субдискретизация насыщенности : 4:2:0
Битовая глубина : 8 бит
Тип развёртки : Чересстрочная
Порядок развёртки : Верхнее поле первое
Метод сжатия : С потерями
Бит/(Пиксели*Кадры) : 0.483
Размер потока : 2,22 Гбайт (93%)
Default : Да
Forced : Нет
Аудио
Идентификатор : 2
Формат : MPEG Audio
Версия формата : Version 1
Профиль формата : Layer 2
Идентификатор кодека : A_MPEG/L2
Идентификатор кодека/Подсказка : MP2
Продолжительность : 1 ч. 3 м.
Вид битрейта : Постоянный
Битрейт : 256 Кбит/сек
Каналы : 2 канала
Частота : 48,0 КГц
Метод сжатия : С потерями
Задержка видео : 18 мс.
Размер потока : 116 Мбайт (5%)
Язык : English
Default : Да
Forced : Нет
[cybertorrent.ru].t126.torrent 
Торрент: Зарегистрирован [ 2019-03-18 10:04 ] · D175826BFED744F8E179E878713CCB883A63CEC9

Скачать .torrent

Скачать

37 KB

Статус: проверено
Скачан: 0 раз
Размер: 7,18 GB
terms.php
[Профиль] [ЛС]
Показать сообщения:    
Ответить на тему

Текущее время: 25-Май 15:35

Часовой пояс: UTC ± 0



Вы не можете начинать темы
Вы не можете отвечать на сообщения
Вы не можете редактировать свои сообщения
Вы не можете удалять свои сообщения
Вы не можете голосовать в опросах
Вы не можете прикреплять файлы к сообщениям
Вы можете скачивать файлы