Антиквар / L'antiquaire / The Art Dealer (Франсуа Марголен / Francois Margolin) [2015, Франция, психологический триллер, драма, DVB] Original (Fra) + Sub (Rus, Eng, Fra, Deu)

Ответить на тему
Статистика раздачи
Размер:  2,11 GB   |    Зарегистрирован:  4 месяца 28 дней   |    Скачан:  1 раз

Полного источника не было: 15 дней

   
 
Автор Сообщение

cyber ®

Пол: Не указан

Стаж: 5 месяцев 6 дней

Сообщений: 142

Создавать темы 21-Мар-2019 15:52

[Цитировать]

Антиквар
L'antiquaire- Страна: Франция
Жанр: психологический триллер, драма
Год выпуска: 2015
Продолжительность: 01:31:45Перевод: Субтитры (русский перевод Е.Маньен, ECLAIR)
Субтитры: русские, английские, французские, французские-телетекст, немецкие, нидерландские, румынские, испанские
Оригинальная аудиодорожка: французский
Режиссер: Франсуа Марголен / François Margolin
В ролях: Анна Сигалевич / Anna Sigalevitch (Esther Stegmann), Мишель Буке / Michel Bouquet (Raoul), Робер Ирш / Robert Hirsch (Claude Weinstein), Франсуа Берлеан / François Berléand (Simon), Луи-До Де Ланкесэ / Louis-Do de Lencquesaing (Melchior), Нильс Шнайдер / Niels Schneider (Klaus)
Описание: Фильм поставлен по реальным событиям. 30-летняя журналистка Эстер Стегман случайно обнаруживает картину швейцарского художника Жака-Лорана Агаса, принадлежавшую ее семье до Второй мировой войны и реквизированную нацистами. Она начинает расследование, чтобы пролить свет на события тех дней... В основу фильма положена история розыска Софи Селигман (Sophie Seligmann) коллекции ее деда Жана-Альбера Селигмана (Jean-Albert Seligmann), родившегося в 1903 году и расстрелянного в Мон-Валериане 15 декабря 1941 года.
Доп. информация: Hot Bird (13.0°E) TV5MONDE Europe DVB-S
Номинация на приз за лучшую режиссуру Festival international du film francophone de Tubingen/Stuttgart 2015.
Качество видео: DVB
Формат видео: MKV
Видео: MPEG Video 2, 720x576@1024x576 (16:9), 25 fps, ~3042 kbps avg, 0.293 bit/pixel
Аудио: MPEG Audio 2, 2 ch, 48 kHz, 192 kbps - французский
Формат субтитров: softsub (SRT)

Пример субтитров

1
00:01:49,414 --> 00:01:51,164
Браво!
2
00:01:57,452 --> 00:01:59,452
АНТИКВАР
3
00:02:33,729 --> 00:02:35,335
"Эстер,
4
00:02:35,335 --> 00:02:40,334
думаю, ты заметила во время
нашей последней встречи,
5
00:02:40,334 --> 00:02:43,853
что я не в лучшей форме.
6
00:02:43,853 --> 00:02:47,412
С каждым днем
уходят силы.
7
00:02:47,412 --> 00:02:50,212
Я прислал тебе бобины
с кинофильмами.
8
00:02:50,212 --> 00:02:52,974
Твоя бабушка Жанна
отдала их мне
9
00:02:52,974 --> 00:02:55,449
незадолго до смерти.
10
00:02:55,449 --> 00:02:58,983
Я их так и не смотрел.
11
00:02:58,983 --> 00:03:01,689
Не нашел аппаратуры.
12
00:03:01,689 --> 00:03:06,439
А может, смелости
не хватило.
13
00:03:06,891 --> 00:03:10,134
Теперь я отдаю их тебе.
14
00:03:10,134 --> 00:03:12,970
На них нет ничего,
кроме воспоминаний.
15
00:03:12,970 --> 00:03:16,970
Ничего, кроме прошлого".
16
00:05:11,541 --> 00:05:13,166
3, 4.
17
00:05:25,377 --> 00:05:27,252
Громче.
18
00:05:32,381 --> 00:05:33,982
Ты ее продашь?
19
00:05:33,982 --> 00:05:36,817
Ни за что. Она моя,
и я ее себе оставлю.
20
00:05:36,817 --> 00:05:38,817
Ты прав.

MediaInfo

General
Unique ID : 174736258426507525514311306769853985928 (0x8374FAAFF4CEA3813EC30F07A93A3488)
Complete name : [apreder]L'antiquaire(2015)DVB.mkv
Format : Matroska
Format version : Version 2
File size : 2.11 GiB
Duration : 1 h 31 min
Overall bit rate mode : Variable
Overall bit rate : 3 299 kb/s
Movie name : L'antiquaire
Released date : 2015-03-18
Encoded date : UTC 2019-03-20 15:03:51
Writing application : mkvmerge v32.0.0 ('Astral Progressions') 64-bit
Writing library : libebml v1.3.7 + libmatroska v1.5.0
Cover : Yes
Attachments : cover.jpg / small_cover.jpg
ACTOR : Anna Sigalevitch, Michel Bouquet, Robert Hirsch
DIRECTOR : Francois Margolin
GENRE : Drama, History, Thriller
IMDB : tt4000768
KEYWORDS : rutracker.org
LAW_RATING : 16+
Video
ID : 1
Format : MPEG Video
Format version : Version 2
Format profile : Main@Main
Format settings : CustomMatrix / BVOP
Format settings, BVOP : Yes
Format settings, Matrix : Custom
Format settings, GOP : M=4, N=12
Format settings, picture structure : Frame
Codec ID : V_MPEG2
Codec ID/Info : MPEG 1 or 2 Video
Duration : 1 h 31 min
Bit rate mode : Variable
Bit rate : 3 042 kb/s
Maximum bit rate : 15.0 Mb/s
Width : 720 pixels
Height : 576 pixels
Display aspect ratio : 16:9
Active Format Description : Letterbox 16:9 image
Frame rate mode : Constant
Frame rate : 25.000 FPS
Standard : PAL
Color space : YUV
Chroma subsampling : 4:2:0
Bit depth : 8 bits
Scan type : Interlaced
Scan order : Top Field First
Compression mode : Lossy
Bits/(Pixel*Frame) : 0.293
Stream size : 1.95 GiB (92%)
Default : Yes
Forced : No
Audio
ID : 2
Format : MPEG Audio
Format version : Version 1
Format profile : Layer 2
Format settings : Joint stereo / Intensity Stereo + MS Stereo
Codec ID : A_MPEG/L2
Codec ID/Hint : MP2
Duration : 1 h 31 min
Bit rate mode : Constant
Bit rate : 192 kb/s
Channel(s) : 2 channels
Sampling rate : 48.0 kHz
Compression mode : Lossy
Stream size : 126 MiB (6%)
Language : French
Default : Yes
Forced : No
Text #1
ID : 3
Format : UTF-8
Codec ID : S_TEXT/UTF8
Codec ID/Info : UTF-8 Plain Text
Language : Russian
Default : No
Forced : No
Text #2
ID : 4
Format : UTF-8
Codec ID : S_TEXT/UTF8
Codec ID/Info : UTF-8 Plain Text
Language : English
Default : No
Forced : No
Text #3
ID : 5
Format : UTF-8
Codec ID : S_TEXT/UTF8
Codec ID/Info : UTF-8 Plain Text
Language : French
Default : No
Forced : No
Text #4
ID : 6
Format : UTF-8
Codec ID : S_TEXT/UTF8
Codec ID/Info : UTF-8 Plain Text
Title : Teletexte
Language : French
Default : No
Forced : No
Text #5
ID : 7
Format : UTF-8
Codec ID : S_TEXT/UTF8
Codec ID/Info : UTF-8 Plain Text
Language : German
Default : No
Forced : No
Text #6
ID : 8
Format : UTF-8
Codec ID : S_TEXT/UTF8
Codec ID/Info : UTF-8 Plain Text
Language : Dutch
Default : No
Forced : No
Text #7
ID : 9
Format : UTF-8
Codec ID : S_TEXT/UTF8
Codec ID/Info : UTF-8 Plain Text
Language : rom
Default : No
Forced : No
Text #8
ID : 10
Format : UTF-8
Codec ID : S_TEXT/UTF8
Codec ID/Info : UTF-8 Plain Text
Language : Spanish
Default : No
Forced : No

Скриншот c названием фильма

Скриншоты


Резервные скриншоты


- [4'535]
[cybertorrent.ru].t1286.torrent 
Торрент: Зарегистрирован [ 2019-03-21 15:52 ] · 5F4E8122843151493D4005C52682D286164C94A4

Скачать .torrent

Скачать

22 KB

Статус: проверено
Скачан: 1 раз
Размер: 2,11 GB
terms.php
[Профиль] [ЛС]
Показать сообщения:    
Ответить на тему

Текущее время: 19-Авг 05:45

Часовой пояс: UTC ± 0



Вы не можете начинать темы
Вы не можете отвечать на сообщения
Вы не можете редактировать свои сообщения
Вы не можете удалять свои сообщения
Вы не можете голосовать в опросах
Вы не можете прикреплять файлы к сообщениям
Вы можете скачивать файлы