В ожидании чуда (Евгений Бедарев) [2007, комедия, мелодрама, BDRip]

Ответить на тему
Статистика раздачи
Размер:  1,46 GB   |    Зарегистрирован:  4 месяца 28 дней   |    Скачан:  0 раз

Полного источника не было: Никогда

   
 
Автор Сообщение

Rodin ®

Пол: Не указан

Стаж: 5 месяцев 6 дней

Сообщений: 226

Создавать темы 21-Мар-2019 15:52

[Цитировать]

В ожидании чуда
Год выпуска: 2007
Жанр: комедия
Продолжительность: 01:36:55.151 (139424 frames)
Субтитры: нет
Режиссер: Евгений Бедарев
В ролях: Екатерина Копанова, Нина Русланова, Олеся Судзиловская, Мария Аронова, Иван Кокорин, Лев Дуров, Владимир Долинский, Антон Макарский, Владимир Крылов, Станислав Бондаренко, Татьяна Васильева, Ольга Прокофьева, Григорий Антипенко, Сергей Зверев, Михаил Полицеймако, Екатерина Присмотрова-Белова, Михаил Химичев
Описание: Пиарщица и просто милая барышня Майя (Екатерина Копанова), несмотря на пухлое лицо школьницы-отличницы, обладает вполне чувственной натурой, до которой, впрочем, никому особого дела нет. Коллеги не жалуют, начальница не пускает в отпуск, а модельный красавец Марат в упор не замечает. Всё идёт хуже некуда, и в один прекрасный день она не выдерживает и вслух просит помощи, сидя на крыше. И тут вместе с внезапным наследством в виде бабушкиной квартиры появляется сказочный метросексуал (Владимир Крылов), называющий себя «фей третьего разряда». Смазливый «фей» учит Майю, как из девушки сделаться женщиной.
Качество: BDRip
Формат: AVI
Видео кодек: XviD
Аудио кодек: АС3
Видео: 720x320 (2.25:1), 23.976 fps, XviD build 73 ~1694 kbps avg, 0.31 bit/pixel
Аудио: 48 kHz, AC3 Dolby Digital, 3/2 (L,C,R,l,r) + LFE ch, ~448.00 kbps avg

Медиаинфо

General
Complete name : E:\004 Мои раздачи\В ожидании чуда 1,46\v_ozhidanii_chuda_1.46_by_bm11.avi
Format : AVI
Format/Info : Audio Video Interleave
File size : 1.46 GiB
Duration : 1h 36mn
Overall bit rate : 2 152 Kbps
Writing application : VirtualDubMod 1.5.10.3 | www.virtualdub-fr.org || (build 2550/release)
Writing library : VirtualDubMod build 2550/release
Video
ID : 0
Format : MPEG-4 Visual
Format profile : Advanced Simple@L5
Format settings, BVOP : 1
Format settings, QPel : No
Format settings, GMC : No warppoints
Format settings, Matrix : Custom
Codec ID : XVID
Codec ID/Hint : XviD
Duration : 1h 36mn
Bit rate : 1 695 Kbps
Width : 720 pixels
Height : 320 pixels
Display aspect ratio : 2.25:1
Frame rate : 23.976 (23976/1000) fps
Color space : YUV
Chroma subsampling : 4:2:0
Bit depth : 8 bits
Scan type : Progressive
Compression mode : Lossy
Bits/(Pixel*Frame) : 0.307
Stream size : 1.15 GiB (79%)
Writing library : XviD 73
Audio
ID : 1
Format : AC-3
Format/Info : Audio Coding 3
Mode extension : CM (complete main)
Format settings, Endianness : Big
Codec ID : 2000
Duration : 1h 36mn
Bit rate mode : Constant
Bit rate : 448 Kbps
Channel(s) : 6 channels
Channel positions : Front: L C R, Side: L R, LFE
Sampling rate : 48.0 KHz
Frame rate : 31.250 fps (1536 spf)
Compression mode : Lossy
Stream size : 311 MiB (21%)
Alignment : Split accross interleaves
Interleave, duration : 42 ms (1.00 video frame)
Interleave, preload duratio : 500 ms

Сравнение

http://cybertorrent.ru/forum/viewtopic.php?t=2029253
http://screenshotcomparison.com/comparison/132474/picture:0
в старом рипе немного перекроп, немного шарпа и непонятно зачем ужатый до 384 звук
[cybertorrent.ru].t1288.torrent 
Торрент: Зарегистрирован [ 2019-03-21 15:52 ] · 6F46FC1F75595772410FCE0617B11ACB1AE8C57F

Скачать .torrent

Скачать

15 KB

Статус: проверено
Скачан: 0 раз
Размер: 1,46 GB
terms.php
[Профиль] [ЛС]
Показать сообщения:    
Ответить на тему

Текущее время: 18-Авг 16:12

Часовой пояс: UTC ± 0



Вы не можете начинать темы
Вы не можете отвечать на сообщения
Вы не можете редактировать свои сообщения
Вы не можете удалять свои сообщения
Вы не можете голосовать в опросах
Вы не можете прикреплять файлы к сообщениям
Вы можете скачивать файлы