Остров ржавого генерала (Валентин Ховенко) [1988, детский, приключения, DVB]

Ответить на тему
Статистика раздачи
Размер:  2,48 GB   |    Зарегистрирован:  1 месяц 6 дней   |    Скачан:  0 раз

Полного источника не было: Никогда

   
 
Автор Сообщение

Leonard ®

Пол: Не указан

Стаж: 1 месяц 12 дней

Сообщений: 51

Создавать темы 18-Мар-2019 10:02

[Цитировать]

Остров ржавого генерала
Жанр: детский, приключения, экранизация
Год выпуска: 1988
Продолжительность: 01:06:00
Режиссёр: Валентин Ховенко
В ролях: Катя Прижбиляк, Александр Леньков, Михаил Данилов, Людмила Артемьева, Сергей Соколов, Сергей Скрипкин, Владимир Балон
Описание: московская школьница XXI века Алиса Селезнёва, снимающаяся в фильме-сказке, становится героиней необыкновенных приключений. В это время при раскопках обнаруживают старых боевых роботов, их отправляют на переплавку, но по дороге по морю они пропадают.
Доп. информация: запись потока *.ts со спутника Экспресс АМ6, 53° в.д., ремукс в *.mkv программой VideoReDo.
Качество видео: DVB
Формат видео: MKV
Видео: MPEG2 Video, 720(1024)x576 (16:9), 25,000 кадров/сек, 5012 Кбит/сек
Аудио: MPEG Audio, 48,0 КГц, 256 Кбит/сек, 2 канала

MediaInfo

General
Unique ID : 259758052955784550704457288925564993611 (0xC36B94CCB0BBAA67D9822E5706C5804B)
Complete name : T:\ОСТРОВ РЖАВОГО ГЕНЕРАЛА (Kultura 53).mkv
Format : Matroska
Format version : Version 2
File size : 2.48 GiB
Duration : 1 h 6 min
Overall bit rate mode : Variable
Overall bit rate : 5 376 kb/s
Writing application : Lavf54.63.104
Writing library : Lavf54.63.104
Video
ID : 1
Format : MPEG Video
Format version : Version 2
Format profile : Main@Main
Format settings : CustomMatrix / BVOP
Format settings, BVOP : Yes
Format settings, Matrix : Custom
Format settings, GOP : M=3, N=15
Format settings, picture st : Frame
Codec ID : V_MPEG2
Codec ID/Info : MPEG 1 or 2 Video
Duration : 1 h 6 min
Bit rate mode : Variable
Bit rate : 5 013 kb/s
Maximum bit rate : 15.0 Mb/s
Width : 720 pixels
Height : 576 pixels
Display aspect ratio : 16:9
Original display aspect rat : 16:9
Frame rate mode : Constant
Frame rate : 25.000 FPS
Standard : PAL
Color space : YUV
Chroma subsampling : 4:2:0
Bit depth : 8 bits
Scan type : Interlaced
Scan order : Top Field First
Compression mode : Lossy
Bits/(Pixel*Frame) : 0.483
Stream size : 2.31 GiB (93%)
Default : No
Forced : No
Audio
ID : 2
Format : MPEG Audio
Format version : Version 1
Format profile : Layer 2
Codec ID : A_MPEG/L2
Codec ID/Hint : MP2
Duration : 1 h 6 min
Bit rate mode : Constant
Bit rate : 256 kb/s
Channel(s) : 2 channels
Sampling rate : 48.0 kHz
Compression mode : Lossy
Delay relative to video : 22 ms
Stream size : 121 MiB (5%)
Language : English
Default : Yes
Forced : No

Если ваш рейтинг упадет ниже 0,3, вы не сможете скачивать торренты! Подробнее о рейтинге.

[cybertorrent.ru].t129.torrent 
Торрент: Зарегистрирован [ 2019-03-18 10:04 ] · 46777E7325230B38F3941DB97FC3A57C473B809F

Скачать .torrent

Скачать

13 KB

Статус: проверено
Скачан: 0 раз
Размер: 2,48 GB
terms.php
[Профиль] [ЛС]
Показать сообщения:    
Ответить на тему

Текущее время: 24-Апр 18:02

Часовой пояс: UTC ± 0



Вы не можете начинать темы
Вы не можете отвечать на сообщения
Вы не можете редактировать свои сообщения
Вы не можете удалять свои сообщения
Вы не можете голосовать в опросах
Вы не можете прикреплять файлы к сообщениям
Вы можете скачивать файлы