Если Бил-стрит могла бы заговорить / If Beale Street Could Talk (Барри Дженкинс / Barry Jenkins) [2018, США, драма, мелодрама, криминал, HDRip] MVO (HDRezka Studio)

Ответить на тему
Статистика раздачи
Размер:  1,46 GB   |    Зарегистрирован:  3 месяца 3 дня   |    Скачан:  0 раз

Полного источника не было: Никогда

   
 
Автор Сообщение

солнышко ®

Пол: Не указан

Стаж: 3 месяца 12 дней

Сообщений: 388

Создавать темы 21-Мар-2019 15:52

[Цитировать]

Если Бил-стрит могла бы заговорить / If Beale Street Could Talk
Страна: США
Жанр: драма, мелодрама, криминал
Год выпуска: 2018
Продолжительность: 01:59:05-Перевод: Любительский (многоголосый закадровый) | HDRezka Studio
Субтитры: русские (форсированные)
Оригинальная аудиодорожка: нет-Режиссер: Барри Дженкинс / Barry Jenkins-В ролях: Кики Лэйн, Стэфан Джеймс, Реджина Кинг, Колман Доминго, Тейона Паррис, Майкл Бич, Онжаню Эллис, Доминик Торн, Диего Луна, Педро Паскаль, Брайан Тайри Генри, Эд Скрейн-Описание: 19-летняя Тиш помолвлена с 22-летним скульптором Фонни. Они готовятся к свадьбе, Тиш ждёт ребёнка, когда Фонни обвиняют в изнасиловании пуэрториканки Виктории. Молодой человек отправляется отбывать наказание за преступление, которого не совершал — его подставил расист-полицейский. Тем временем Виктория покидает США, возвращается домой, а мать Тиш, Шерон, отправляется вслед за женщиной, чтобы найти доказательства невиновности Фонни.-
Качество видео: HDRip
Формат видео: AVI
Видео: 704x352 (2.00:1), 23.976 fps, XviD build 73 ~1550 kbps avg, 0.26 bit/pixel
Аудио: 48 kHz, AC3 Dolby Digital, 2/0 (L,R) ch, ~192 kbps-[box]Сэмпл[/box]-

MediaInfo

Код:Формат : AVI
Формат/Информация : Audio Video Interleave
Размер файла : 1,46 Гбайт
Продолжительность : 1 ч. 59 м.
Общий поток : 1752 Кбит/сек
Программа кодирования : VirtualDubMod 1.5.10.3 | www.virtualdub-fr.org || (build 2550/release)
Библиотека кодирования : VirtualDubMod build 2550/release
Видео
Идентификатор : 0
Формат : MPEG-4 Visual
Профиль формата : Advanced Simple@L5
Настройки формата : BVOP1 / Custom Matrix
Параметр BVOP формата : 1
Параметр QPel формата : Нет
Параметр GMC формата : Без точки перехода
Параметр матрицы формата : Выборочная
Идентификатор кодека : XVID
Идентификатор кодека/Подсказка : XviD
Продолжительность : 1 ч. 59 м.
Битрейт : 1550 Кбит/сек
Ширина : 704 пикселя
Высота : 352 пикселя
Соотношение сторон : 2,000
Частота кадров : 23,976 (24000/1001) кадра/сек
Цветовое пространство : YUV
Субдискретизация насыщенности : 4:2:0
Битовая глубина : 8 бит
Тип развёртки : Прогрессивная
Метод сжатия : С потерями
Бит/(Пиксели*Кадры) : 0.261
Размер потока : 1,29 Гбайт (88%)
Библиотека кодирования : XviD 73
Аудио
Идентификатор : 1
Формат : AC-3
Формат/Информация : Audio Coding 3
Коммерческое название : Dolby Digital
Идентификатор кодека : 2000
Продолжительность : 1 ч. 59 м.
Вид битрейта : Постоянный
Битрейт : 192 Кбит/сек
Каналы : 2 канала
Channel layout : L R
Частота : 48,0 КГц
Частота кадров : 31,250 кадров/сек (1536 SPF)
Битовая глубина : 16 бит
Метод сжатия : С потерями
Размер потока : 164 Мбайт (11%)
Выравнивание : Разделение по промежуткам
Продолжительность промежутка : 42 мс. (1,00 видеокадр)
Время предзагрузки промежутка : 500 мс.
ServiceKind/String : Complete Main

Скриншоты


[cybertorrent.ru].t1293.torrent 
Торрент: Зарегистрирован [ 2019-03-21 15:52 ] · 957E7A17702D150EF6AFE5043760DCAA6E15ADA2

Скачать .torrent

Скачать

15 KB

Статус: проверено
Скачан: 0 раз
Размер: 1,46 GB
terms.php
[Профиль] [ЛС]
Показать сообщения:    
Ответить на тему

Текущее время: 25-Июн 09:29

Часовой пояс: UTC ± 0



Вы не можете начинать темы
Вы не можете отвечать на сообщения
Вы не можете редактировать свои сообщения
Вы не можете удалять свои сообщения
Вы не можете голосовать в опросах
Вы не можете прикреплять файлы к сообщениям
Вы можете скачивать файлы