Новичок / Новобранец / The Rookie / Сезон: 1 / Серии: 1-16 из 20 (Грег Биман, Адам Дэвидсон, Тоа Фрейзер) [2018, США, Драма, криминал, WEB-DLRip] MVO (LostFilm) + Original

Ответить на тему
Статистика раздачи
Размер:  8,43 GB   |    Зарегистрирован:  5 месяцев 1 день   |    Скачан:  0 раз

Полного источника не было: Никогда

   
 
Автор Сообщение

Рамфоринх ®

Пол: Не указан

Стаж: 5 месяцев 12 дней

Сообщений: 355

Создавать темы 22-Мар-2019 16:11

[Цитировать]

Новичок | Новобранец | The Rookie- - Год выпуска: 2018
Страна: США
Жанр: Драма, криминал
Продолжительность: ~ 00:43:00-Перевод: Профессиональный (многоголосый закадровый) | LostFilm-Режиссёр: Грег Биман, Адам Дэвидсон, Тоа Фрейзер-В ролях: Нэйтан Филлион, Алисса Диас, Титус Макин мл., Эрик Винтер, Ричард Т. Джонс, Мелисса О’Нил, Мерседес Масон, Эфтон Уильямсон, Марсей Монро, Дэвид ДеСантос-Описание: Начинать с чистого листа всегда нелегко, особенно для уроженца маленького городка Джона Нолана, который после инцидента, перевернувшего его жизнь, решил воплотить в жизнь давнюю мечту и присоединиться к полиции Лос-Анджелеса. Возрастного новичка встречают с понятным скептицизмом, однако жизненный опыт, упорство и чувство юмора дают Джону преимущество.- -[box=#aed8ff,#003465]Ссылка на предыдущие и альтернативные раздачи[/box]-Качество: WEB-DLRip
Формат: AVI
Видео: XviD, 720x400 (16:9), 23,976 кадра/сек, ~1500 Кбит/сек
Аудио Rus: MP3, 48 kHz, 2 ch, 128 Кбит/сек | LostFilm
Аудио Eng: MP3, 48 kHz, 2 ch, 128 Кбит/сек
Субтитры: Отсутствуют
Реклама: Отсутствует-

✘ Релиз ✘

Рип: DriverV
-

Список серий

01. Pilot / Пилот
02. Crash Course / Ударный курс
03. The Good, the Bad and the Ugly / Хороший, плохой, злой
04. The Switch / Перемены
05. The Roundup / Облава
06. The Hawke / Хоук
07. The Ride Along / Пассажир
08. Time of Death / Время смерти
09. Standoff / Перестрелка
10. Flesh and Blood / Плоть и кровь
11. Redwood / Редвуд
12. Heartbreak / Разбитое сердце
13. Caught Stealing / Проворовавшиеся
14. Plain Clothes Day / День в штатском
15. Manhunt / Облава
-

MediaInfo

Общее
Полное имя : D:\Новобранец (сезон 1) The Rookie (2018) WEB-DLRip - LostFilm\The.Rookie.S01E01.WEB-DLRip.Rus.Eng.DV.LostFilm.avi
Формат : AVI
Формат/Информация : Audio Video Interleave
Размер файла : 545 Мбайт
Продолжительность : 43 м. 1 с.
Общий поток : 1772 Кбит/сек
Название фильма : The.Rookie.S01E01.WEB-DLRip.Rus.Eng.DV.LostFilm / NNM-Club
Программа кодирования : VirtualDubModRus 1.5.10.2 (build 2542/release)
Библиотека кодирования : VirtualDubMod build 2542/release
Видео
Идентификатор : 0
Формат : MPEG-4 Visual
Профиль формата : Advanced Simple@L5
Настройки формата : BVOP2
Параметр BVOP формата : 2
Параметр QPel формата : Нет
Параметр GMC формата : Без точки перехода
Параметр матрицы формата : Default (H.263)
Идентификатор кодека : XVID
Идентификатор кодека/Подсказка : XviD
Продолжительность : 43 м. 1 с.
Битрейт : 1502 Кбит/сек
Ширина : 720 пикселей
Высота : 400 пикселей
Соотношение сторон : 16:9
Частота кадров : 23,976 (24000/1001) кадра/сек
Цветовое пространство : YUV
Субдискретизация насыщенности : 4:2:0
Битовая глубина : 8 бит
Тип развёртки : Прогрессивная
Метод сжатия : С потерями
Бит/(Пиксели*Кадры) : 0.218
Размер потока : 462 Мбайт (85%)
Заголовок : Rip by DriverV / NNM-Club
Библиотека кодирования : XviD 67
Аудио #1
Идентификатор : 1
Формат : MPEG Audio
Версия формата : Version 1
Профиль формата : Layer 3
Настройки формата : Joint stereo / MS Stereo
Идентификатор кодека : 55
Идентификатор кодека/Подсказка : MP3
Продолжительность : 43 м. 1 с.
Вид битрейта : Постоянный
Битрейт : 128 Кбит/сек
Каналы : 2 канала
Частота : 48,0 КГц
Метод сжатия : С потерями
Размер потока : 39,4 Мбайт (7%)
Выравнивание : Соединение по промежуткам
Продолжительность промежутка : 42 мс. (1,00 видеокадр)
Время предзагрузки промежутка : 504 мс.
Аудио #2
Идентификатор : 2
Формат : MPEG Audio
Версия формата : Version 1
Профиль формата : Layer 3
Настройки формата : Joint stereo / MS Stereo
Идентификатор кодека : 55
Идентификатор кодека/Подсказка : MP3
Продолжительность : 43 м. 1 с.
Вид битрейта : Постоянный
Битрейт : 128 Кбит/сек
Каналы : 2 канала
Частота : 48,0 КГц
Метод сжатия : С потерями
Размер потока : 39,4 Мбайт (7%)
Выравнивание : Соединение по промежуткам
Продолжительность промежутка : 42 мс. (1,00 видеокадр)
Время предзагрузки промежутка : 504 мс.
-

Скриншоты

-

Внимание! Раздача ведётся путём добавления новых серий

Внимание! Раздача ведётся путём добавления новых серий; при каждом добавлении создаётся новый торрент. Чтобы начать докачку новой серии, пользователям необходимо сделать следующее:
(1) остановить скачивание,
(2) удалить старый торрент у себя из клиента (старые серии удалять не надо),
(3) скачать новый торрент и запустить его у себя в клиенте вместо старого, при этом указать клиенту путь в старую папку куда и должно происходить скачивание новых серий.
Ваш клиент при этом должен произвести хеширование (проверку) старой папки (если не производит сам - помогите ему сделать это), и будет докачивать только те серии которых у вас ещё нет. Старые серии при этом не удаляются, а продолжают раздаваться!
Eсли вы уже удалили старые серии, то предотвратить повторную закачку старых серий можно, отжав галочку в соответствующих местах при запуске нового торрента. По возможности, желательно не удалять старые серии как можно дольше чтобы релизёр не столько продолжал раздавать старые серии, а смог сконцентрироваться на новых.

Если ваш рейтинг упадет ниже 0,3, вы не сможете скачивать торренты! Подробнее о рейтинге.

[cybertorrent.ru].t1305.torrent 
Торрент: Зарегистрирован [ 2019-03-22 16:11 ] · 68EA1B9ED75AF0FF6F787E17CC5CAC5F99D9766E

Скачать .torrent

Скачать

23 KB

Статус: проверено
Скачан: 0 раз
Размер: 8,43 GB
terms.php
[Профиль] [ЛС]
Показать сообщения:    
Ответить на тему

Текущее время: 24-Авг 15:56

Часовой пояс: UTC ± 0



Вы не можете начинать темы
Вы не можете отвечать на сообщения
Вы не можете редактировать свои сообщения
Вы не можете удалять свои сообщения
Вы не можете голосовать в опросах
Вы не можете прикреплять файлы к сообщениям
Вы можете скачивать файлы