Бирюк (Полина Фёдорова) [2017, Россия, мультфильм, WEBRip]

Ответить на тему
Статистика раздачи
Размер:  92 MB   |    Зарегистрирован:  4 месяца 26 дней   |    Скачан:  1 раз

Полного источника не было: 2 месяца 3 дня

   
 
Автор Сообщение

xelon ®

Пол: Не указан

Стаж: 5 месяцев 6 дней

Сообщений: 94

Создавать темы 22-Мар-2019 16:11

[Цитировать]

Бирюк
Страна: Россия
Жанр: мультфильм
Продолжительность: 00:05:14
Год выпуска: 2017
Режиссёр: Полина Фёдорова
Роли озвучивали: Татьяна Зуровская, Ульяна Аксёнова
Описание: Чтобы утихомирить разбаловавшуюся внучку, бабушка рассказывает ей на ночь про страшного Бирюка, который забирает тех, кто спать не хочет...
Доп. информация: Диплом "за художественное внедрение народной педагогики" на Фестивале анимации в Суздале (2018)
Качество: WEBRip
Формат: AVI
Видео: 2209 kbps, 720х400 (16:9), 25.000 fps, MPEG-4 Visual (XviD)
Аудио: 224 kbps, 48.0 kHz, 2 channels, MPEG Audio (MP3)
Субтитры: отсутствуют

Подробные технические данные

General
Complete name : Бирюк (2017).avi
Format : AVI
Format/Info : Audio Video Interleave
File size : 91.7 MiB
Duration : 5mn 14s
Overall bit rate : 2 443 Kbps
Writing application : VirtualDubMod 1.5.10.2 (build 2540/release)
Writing library : VirtualDubMod build 2540/release
Video
ID : 0
Format : MPEG-4 Visual
Format profile : Advanced Simple@L5
Format settings, BVOP : 2
Format settings, QPel : No
Format settings, GMC : No warppoints
Format settings, Matrix : Default (H.263)
Codec ID : XVID
Codec ID/Hint : XviD
Duration : 5mn 14s
Bit rate : 2 209 Kbps
Width : 720 pixels
Height : 400 pixels
Display aspect ratio : 16:9
Frame rate : 25.000 fps
Color space : YUV
Chroma subsampling : 4:2:0
Bit depth : 8 bits
Scan type : Progressive
Compression mode : Lossy
Bits/(Pixel*Frame) : 0.307
Stream size : 82.9 MiB (90%)
Writing library : XviD 73
Audio
ID : 1
Format : MPEG Audio
Format version : Version 1
Format profile : Layer 3
Codec ID : 55
Codec ID/Hint : MP3
Duration : 5mn 14s
Bit rate mode : Constant
Bit rate : 224 Kbps
Channel(s) : 2 channels
Sampling rate : 48.0 KHz
Compression mode : Lossy
Stream size : 8.40 MiB (9%)
Alignment : Split accross interleaves
Interleave, duration : 40 ms (1.00 video frame)
Interleave, preload duration : 500 ms
Writing library : LAME3.99.5

Скриншоты

[cybertorrent.ru].t1306.torrent 
Торрент: Зарегистрирован [ 2019-03-22 16:11 ] · 066549ED518D676D52F1C78D05423DAF617D458E

Скачать .torrent

Скачать

15 KB

Статус: проверено
Скачан: 1 раз
Размер: 92 MB
terms.php
[Профиль] [ЛС]
Показать сообщения:    
Ответить на тему

Текущее время: 18-Авг 15:01

Часовой пояс: UTC ± 0



Вы не можете начинать темы
Вы не можете отвечать на сообщения
Вы не можете редактировать свои сообщения
Вы не можете удалять свои сообщения
Вы не можете голосовать в опросах
Вы не можете прикреплять файлы к сообщениям
Вы можете скачивать файлы