Страна хороших деточек (Ольга Каптур) [2013, приключения, WEB-DLRip-AVC]

Ответить на тему
Статистика раздачи
Размер:  1,45 GB   |    Зарегистрирован:  5 месяцев 1 день   |    Скачан:  0 раз

Полного источника не было: Никогда

   
 
Автор Сообщение

Leonard ®

Пол: Не указан

Стаж: 5 месяцев 7 дней

Сообщений: 57

Создавать темы 18-Мар-2019 10:02

[Цитировать]

Страна хороших деточек- Жанр: приключения
Год выпуска: 2013
Продолжительность: 01:18:48-Режиссёр: Ольга Каптур-В ролях:
Кира Флейшер, Вячеслав Манучаров, Наталья Селезнёва, Владимир Грамматиков, Андрей Кайков, Ирина Пегова, Дмитрий Назаров, Евгений Воскресенский, Ивонн Каттерфельд, Дарья Андреева
Описание:
Это история непослушной девочки Саши, родители которой неосмотрительно пожелали себе на Новый год, чтобы у них вместо Саши появилась хорошая девочка. Не успели пробить праздничные куранты, как на пороге появилась чужая хорошая девочка, а Саша сказочным образом перенеслась в волшебную Страну хороших деточек на перевоспитание. В этой стране правит строгая королева и ее еще более строгий полномочный представитель, а жизнь подчинена строгим правилам. Чтобы вернуться домой к родителям, Саше придется пройти через невероятные приключения и преодолеть множество испытаний, в чем ей помогут верные друзья - кот Багет и пес Балбес.-Сэмпл | Кинопоиск-Качество видео: WEB-DLRip-AVC
Формат видео: MKV
Видео: x264: (High@L4.1); 1024x576, Display aspect ratio 16:9, 25.000 fps, 2254 Kbps
Аудио: AC-3; 16 bits 48 Khz; 5.1ch 384 Kbps; CBR

MediaInfo

x264 log

avs [info]: 1024x576p 1:1 @ 25/1 fps (cfr)
x264 [info]: using SAR=1/1
x264 [info]: using cpu capabilities: MMX2 SSE2Fast SSSE3 SSE4.2
x264 [info]: profile High, level 4.1
x264 [info]: frame I:1026 Avg QP:15.75 size: 72319
x264 [info]: frame P:32542 Avg QP:18.73 size: 22132
x264 [info]: frame B:84632 Avg QP:20.81 size: 6344
x264 [info]: consecutive B-frames: 3.1% 6.0% 7.2% 70.2% 5.5% 6.1% 0.6% 0.5% 0.1% 0.3% 0.3%
x264 [info]: mb I I16..4: 5.3% 71.5% 23.2%
x264 [info]: mb P I16..4: 1.1% 8.4% 1.5% P16..4: 38.7% 26.8% 14.1% 0.0% 0.0% skip: 9.4%
x264 [info]: mb B I16..4: 0.1% 0.8% 0.2% B16..8: 33.4% 10.0% 3.0% direct: 4.9% skip:47.6% L0:37.6% L1:46.3% BI:16.2%
x264 [info]: 8x8 transform intra:74.8% inter:58.2%
x264 [info]: direct mvs spatial:95.5% temporal:4.5%
x264 [info]: coded y,uvDC,uvAC intra: 83.3% 85.0% 61.1% inter: 20.4% 17.4% 8.6%
x264 [info]: i16 v,h,dc,p: 34% 11% 5% 50%
x264 [info]: i8 v,h,dc,ddl,ddr,vr,hd,vl,hu: 13% 11% 6% 8% 12% 13% 13% 12% 13%
x264 [info]: i4 v,h,dc,ddl,ddr,vr,hd,vl,hu: 11% 9% 3% 9% 15% 14% 14% 11% 13%
x264 [info]: i8c dc,h,v,p: 40% 22% 19% 19%
x264 [info]: Weighted P-Frames: Y:6.6% UV:4.5%
x264 [info]: ref P L0: 56.0% 10.5% 14.3% 4.9% 3.7% 2.5% 2.2% 1.2% 1.1% 0.9% 0.9% 0.8% 0.8% 0.2% 0.0%
x264 [info]: ref B L0: 80.2% 8.8% 3.7% 2.2% 1.4% 1.0% 0.8% 0.5% 0.4% 0.4% 0.3% 0.2%
x264 [info]: ref B L1: 96.7% 3.3%
x264 [info]: kb/s:2252.60
-General
Unique ID : 254874367140598082835651191060884074050 (0xBFBF047FAEC130DB8D799D68D953AE42)
Complete name : Страна хороших деточек.mkv
Format : Matroska
Format version : Version 2
File size : 1.45 GiB
Duration : 1 h 18 min
Overall bit rate : 2 638 kb/s
Encoded date : UTC 2018-08-17 17:38:38
Writing application : mkvmerge v7.8.0 ('River Man') 32bit built on Mar 27 2015 16:18:02
Writing library : libebml v1.3.1 + libmatroska v1.4.2
Video
ID : 1
Format : AVC
Format/Info : Advanced Video Codec
Format profile : High@L4.1
Format settings, CABAC : Yes
Format settings, ReFrames : 13 frames
Codec ID : V_MPEG4/ISO/AVC
Duration : 1 h 18 min
Bit rate : 2 254 kb/s
Width : 1 024 pixels
Height : 576 pixels
Display aspect ratio : 16:9
Frame rate mode : Constant
Frame rate : 25.000 FPS
Color space : YUV
Chroma subsampling : 4:2:0
Bit depth : 8 bits
Scan type : Progressive
Bits/(Pixel*Frame) : 0.153
Stream size : 1.21 GiB (83%)
Title : Страна хороших деточек.2013
Writing library : x264 core 152 r2851kMod ba24899
Encoding settings : cabac=1 / ref=13 / deblock=1:-2:-1 / analyse=0x3:0x113 / me=umh / subme=10 / psy=1 / fade_compensate=0.00 / psy_rd=1.00:0.00 / mixed_ref=1 / me_range=32 / chroma_me=1 / trellis=2 / 8x8dct=1 / cqm=0 / deadzone=21,11 / fast_pskip=0 / chroma_qp_offset=-2 / threads=12 / lookahead_threads=3 / sliced_threads=0 / nr=0 / decimate=0 / interlaced=0 / bluray_compat=0 / constrained_intra=0 / bframes=10 / b_pyramid=2 / b_adapt=2 / b_bias=0 / direct=3 / weightb=1 / open_gop=0 / weightp=2 / keyint=240 / keyint_min=24 / scenecut=40 / intra_refresh=0 / rc_lookahead=60 / rc=2pass / mbtree=0 / bitrate=2254 / ratetol=1.0 / qcomp=0.60 / qpmin=0 / qpmax=69 / qpstep=4 / cplxblur=20.0 / qblur=0.5 / vbv_maxrate=62500 / vbv_bufsize=78125 / nal_hrd=none / filler=0 / ip_ratio=1.30 / pb_ratio=1.30 / aq=3:0.75
Language : Russian
Default : Yes
Forced : No
Color range : Limited
Color primaries : BT.709
Transfer characteristics : BT.709
Matrix coefficients : BT.709
Audio
ID : 2
Format : AC-3
Format/Info : Audio Coding 3
Mode extension : CM (complete main)
Format settings, Endianness : Big
Codec ID : A_AC3
Duration : 1 h 18 min
Bit rate mode : Constant
Bit rate : 384 kb/s
Channel(s) : 6 channels
Channel positions : Front: L C R, Side: L R, LFE
Sampling rate : 48.0 kHz
Frame rate : 31.250 FPS (1536 spf)
Compression mode : Lossy
Stream size : 216 MiB (15%)
Title : AC-3; 16 bits 48 Khz; 5.1ch 384 Kbps; CBR (iTunes)
Language : Russian
Default : Yes
Forced : No

Скриншоты

[cybertorrent.ru].t131.torrent 
Торрент: Зарегистрирован [ 2019-03-18 10:04 ] · 07E0AE1FFEE4A65A86EA7EBC3885B480D4FC3FA1

Скачать .torrent

Скачать

15 KB

Статус: проверено
Скачан: 0 раз
Размер: 1,45 GB
terms.php
[Профиль] [ЛС]
Показать сообщения:    
Ответить на тему

Текущее время: 19-Авг 18:13

Часовой пояс: UTC ± 0



Вы не можете начинать темы
Вы не можете отвечать на сообщения
Вы не можете редактировать свои сообщения
Вы не можете удалять свои сообщения
Вы не можете голосовать в опросах
Вы не можете прикреплять файлы к сообщениям
Вы можете скачивать файлы