Американские боги / American Gods / Сезон: 2 / Серии: 1-2 из 10 (Дэвид Слэйд, Крис Бирн, Адам Кэйн) [2019, США, фэнтези, драма, детектив, WEB-DLRip] MVO (Jaskier) + Original + Sub (Rus, Eng)

Ответить на тему
Статистика раздачи
Размер:  1,42 GB   |    Зарегистрирован:  5 месяцев 23 дня   |    Скачан:  0 раз

Полного источника не было: Никогда

   
 
Автор Сообщение

Рамфоринх ®

Пол: Не указан

Стаж: 6 месяцев 2 дня

Сообщений: 366

Создавать темы 22-Мар-2019 16:11

[Цитировать]

-Американские боги / American Gods-
Год выпуска: 2019
Страна: США
Жанр: Фэнтези, детектив, драма
Продолжительность: ~ 59 мин.
Перевод:: Профессиональный (многоголосый закадровый) (Jaskier)-Режиссеры: Дэвид Слэйд, Крис Бирн, Адам Кэйн
В ролях: Рики Уиттл, Иэн МакШейн, Эмили Браунинг, Пабло Шрайбер, Брюс Лэнгли, Джонатан Такер, Джиллиан Андерсон, Клорис Личмен и др.-Описание: Тень — человек с прошлым. Но теперь единственное, чего он хочет — это жить тихой и спокойной жизнью со своей женой в стороне от проблем. Пока он не узнает о ее гибели в результате несчастного случая. По пути на похороны домой, когда сильнейший шторм сотрясает самолет, ему представляется странный человек с соседнего кресла. Он называет себя мистер Среда. И он знает о Тени больше, чем кажется возможным. Он предупреждает Тень, что грядет ещё больший шторм. И ничто с этого момента, включая его самого, не будет таким, как прежде.-Информационные ссылки: IMDb || Кинопоиск--Качество: WEB-DLRip
Формат: AVI (Сэмпл)
Видео: 720x400 (16:9), 23.976 fps, XviD build 50 ~1498 kbps avg, 0.22 bit/pixel
Аудио #1: 48 kHz, MPEG Layer 3, 2 ch, ~192.00 kbps avg (Rus)
Аудио #2: 48 kHz, MPEG Layer 3, 2 ch, ~192.00 kbps avg (Eng)
Субтитры: Русские, английские
Реклама: Отсутствует-Ссылка на предыдущие и альтернативные раздачи--
MIОбщее
Полное имя : D:\Видео\Сериалы\400p\American Gods (S02)\American.Gods.S02E01.avi
Формат : AVI
Формат/Информация : Audio Video Interleave
Размер файла : 731 Мбайт
Продолжительность : 53 м. 53 с.
Общий поток : 1897 Кбит/сек
Программа кодирования : VirtualDubMod 1.5.10.2 (build 2540/release)
Библиотека кодирования : VirtualDubMod build 2540/release
Видео
Идентификатор : 0
Формат : MPEG-4 Visual
Профиль формата : Advanced Simple@L5
Настройки формата : BVOP1
Параметр BVOP формата : 1
Параметр QPel формата : Нет
Параметр GMC формата : Без точки перехода
Параметр матрицы формата : Default (H.263)
Идентификатор кодека : XVID
Идентификатор кодека/Подсказка : XviD
Продолжительность : 53 м. 53 с.
Битрейт : 1500 Кбит/сек
Ширина : 720 пикселей
Высота : 400 пикселей
Соотношение сторон : 16:9
Частота кадров : 23,976 (24000/1001) кадра/сек
Цветовое пространство : YUV
Субдискретизация насыщенности : 4:2:0
Битовая глубина : 8 бит
Тип развёртки : Прогрессивная
Метод сжатия : С потерями
Бит/(Пиксели*Кадры) : 0.217
Размер потока : 578 Мбайт (79%)
Библиотека кодирования : XviD 1.2.1 (UTC 2008-12-04)
Аудио #1
Идентификатор : 1
Формат : MPEG Audio
Версия формата : Version 1
Профиль формата : Layer 3
Настройки формата : Joint stereo / MS Stereo
Идентификатор кодека : 55
Идентификатор кодека/Подсказка : MP3
Продолжительность : 53 м. 53 с.
Вид битрейта : Постоянный
Битрейт : 192 Кбит/сек
Каналы : 2 канала
Частота : 48,0 КГц
Метод сжатия : С потерями
Размер потока : 74,0 Мбайт (10%)
Выравнивание : Соединение по промежуткам
Продолжительность промежутка : 42 мс. (1,00 видеокадр)
Время предзагрузки промежутка : 504 мс.
Аудио #2
Идентификатор : 2
Формат : MPEG Audio
Версия формата : Version 1
Профиль формата : Layer 3
Настройки формата : Joint stereo / MS Stereo
Идентификатор кодека : 55
Идентификатор кодека/Подсказка : MP3
Продолжительность : 53 м. 53 с.
Вид битрейта : Постоянный
Битрейт : 192 Кбит/сек
Каналы : 2 канала
Частота : 48,0 КГц
Частота кадров : 41,667 кадра/сек (1152 SPF)
Метод сжатия : С потерями
Размер потока : 74,0 Мбайт (10%)
Выравнивание : Соединение по промежуткам
Продолжительность промежутка : 42 мс. (1,00 видеокадр)
Время предзагрузки промежутка : 504 мс.
Библиотека кодирования : LAME3.99.5ЄЄЄЄЄЄЄЄяя

Скриншоты

Внимание! Раздача ведётся путём добавления новых серий

При очередном добавлении новой серии, создаётся новый торрент. Для того, чтобы скачать новую серию сезона, Вам необходимо сделать следующее:
1. Удалить старый торрент (лишь торрент, серии удалять не нужно),
2. Скачать новый торрент-файл и запустить его. ОБЯЗАТЕЛЬНО при этом указать клиенту путь в старую папку, где уже находятся предыдущие серии.
3. Ваш клиент производит хеширование старой папки и будет докачивать только те серии и субтитры, которых у Вас ещё нет. Старые серии при этом не удаляются.
[cybertorrent.ru].t1315.torrent 
Торрент: Зарегистрирован [ 2019-03-22 16:11 ] · 98BC41B7438C479B0ECCBC2C7B1D575A688E0516

Скачать .torrent

Скачать

15 KB

Статус: проверено
Скачан: 0 раз
Размер: 1,42 GB
terms.php
[Профиль] [ЛС]
Показать сообщения:    
Ответить на тему

Текущее время: 15-Сен 09:48

Часовой пояс: UTC ± 0



Вы не можете начинать темы
Вы не можете отвечать на сообщения
Вы не можете редактировать свои сообщения
Вы не можете удалять свои сообщения
Вы не можете голосовать в опросах
Вы не можете прикреплять файлы к сообщениям
Вы можете скачивать файлы

Партнеры

Выражаем благодарность всем людям, внесшим вклад в наш сайт в далёком прошлом. Мы помним Вас, гордимся Вами и ждём Вас обратно!

Интересное в сети