Волкодав из рода Серых Псов (Николай Лебедев) [2006, фэнтези, боевик, приключения, BDRip]

Ответить на тему
Статистика раздачи
Размер:  2,18 GB   |    Зарегистрирован:  5 месяцев 1 день   |    Скачан:  0 раз

Полного источника не было: Никогда

   
 
Автор Сообщение

Rodin ®

Пол: Не указан

Стаж: 5 месяцев 12 дней

Сообщений: 230

Создавать темы 22-Мар-2019 16:11

[Цитировать]

Волкодав из рода Серых Псов
Год выпуска: 2006
Жанр: фэнтези, боевик, приключения
Продолжительность: 02:21:59.524 (204264 frames)
Субтитры: нет
Режиссер: Николай Лебедев
В ролях: Александр Бухаров, Оксана Акиньшина, Александр Домогаров ст., Игорь Петренко, Юозас Будрайтис, Резо Эсадзе, Артём Семакин, Наталья Варлей, Татьяна Лютаева, Анатолий Белый, Лилиан Наврозашвили, Андрей Руденский, Евгения Свиридова, Евгения Тодорашко, Пётр Зайченко, Мария Скосырева, Нина Усатова, Вера Иванова, Геннадий Макоев
Описание: Он был обречен на гибель, но выжил, чтобы отомстить за истребление своего рода. Последний человек из племени Серых Псов стал могучим воином, называющим себя Волкодав. Избежав смерти в подземных рудниках, Волкодав пускается в путь в сопровождении своего спутника, Нелетучего Мыша. Волкодав одержим желанием покарать Людоеда, уничтожившего деревню Серых Псов. Добравшись до замка заклятого врага, Волкодав жестоко расправляется с Людоедом. Там же он освобождает двух пленников, мудреца Тилорна и рабыню Ниилит. Вместе с ними Волкодав попадает в город Галирад, переживающий смутные времена. Кнес Галирада, стремясь спасти город от разорения, сватает свою дочь Елень за молодого воина Винитара, обещающего защиту Галираду. Юной кнесинке предстоит дальняя дорога в земли будущего мужа. Она просит Волкодава стать ее телохранителем в опасном путешествии. Согласившись служить кнесинке, Волкодав оказывается втянутым в водоворот таинственных событий, проливающих свет на истинную цель поездки…
Качество: BDRip
Формат: AVI
Видео кодек: XviD
Аудио кодек: АС3
Видео: 720x304 (2.37:1), 23.976 fps, XviD build 73 ~1747 kbps avg, 0.33 bit/pixel
Аудио: 48 kHz, AC3 Dolby Digital, 3/2 (L,C,R,l,r) + LFE ch, ~448.00 kbps avg

Медиаинфо

General
Complete name : E:\004 Мои раздачи\Волкодав 2,18\volkodav_iz_roda_seryh_psov_2.18_by_bm11.avi
Format : AVI
Format/Info : Audio Video Interleave
Format profile : OpenDML
File size : 2.18 GiB
Duration : 2h 21mn
Overall bit rate : 2 203 Kbps
Director : bm11
Writing application : VirtualDubMod 1.5.10.3 | www.virtualdub-fr.org || (build 2550/release)
Video
ID : 0
Format : MPEG-4 Visual
Format profile : Advanced Simple@L5
Format settings, BVOP : 1
Format settings, QPel : No
Format settings, GMC : No warppoints
Format settings, Matrix : Custom
Codec ID : XVID
Codec ID/Hint : XviD
Duration : 2h 21mn
Bit rate : 1 743 Kbps
Width : 720 pixels
Height : 304 pixels
Display aspect ratio : 2.35:1
Frame rate : 23.976 (23976/1000) fps
Color space : YUV
Chroma subsampling : 4:2:0
Bit depth : 8 bits
Scan type : Progressive
Compression mode : Lossy
Bits/(Pixel*Frame) : 0.332
Stream size : 1.73 GiB (79%)
Writing library : XviD 73
Audio
ID : 1
Format : AC-3
Format/Info : Audio Coding 3
Mode extension : CM (complete main)
Format settings, Endianness : Big
Codec ID : 2000
Duration : 2h 21mn
Bit rate mode : Constant
Bit rate : 448 Kbps
Channel(s) : 6 channels
Channel positions : Front: L C R, Side: L R, LFE
Sampling rate : 48.0 KHz
Frame rate : 31.250 fps (1536 spf)
Compression mode : Lossy
Stream size : 455 MiB (20%)
Alignment : Split accross interleaves
Interleave, duration : 42 ms (1.00 video frame)
Interleave, preload duratio : 500 ms

Если ваш рейтинг упадет ниже 0,3, вы не сможете скачивать торренты! Подробнее о рейтинге.

[cybertorrent.ru].t1316.torrent 
Торрент: Зарегистрирован [ 2019-03-22 16:11 ] · 0A9C21C250FCDFAFB0D4353305BA4C8B1602FE75

Скачать .torrent

Скачать

11 KB

Статус: проверено
Скачан: 0 раз
Размер: 2,18 GB
terms.php
[Профиль] [ЛС]
Показать сообщения:    
Ответить на тему

Текущее время: 24-Авг 15:25

Часовой пояс: UTC ± 0



Вы не можете начинать темы
Вы не можете отвечать на сообщения
Вы не можете редактировать свои сообщения
Вы не можете удалять свои сообщения
Вы не можете голосовать в опросах
Вы не можете прикреплять файлы к сообщениям
Вы можете скачивать файлы