Запах страсти / Чутье / Flair (Генри Сафран / Henri Safran) [1990, Австралия, драма, мелодрама, VHSRip] AVO (Сергей Кузнецов)

Ответить на тему
Статистика раздачи
Размер:  2,73 GB   |    Зарегистрирован:  5 месяцев 26 дней   |    Скачан:  0 раз

Полного источника не было: Никогда

   
 
Автор Сообщение

serzh ®

Пол: Не указан

Стаж: 6 месяцев 5 дней

Сообщений: 383

Создавать темы 22-Мар-2019 16:10

[Цитировать]

Запах страсти / Чутье / Flair
Страна: Австралия
Жанр: драма, мелодрама
Год выпуска: 1990
Продолжительность: 01:33:00 + 01:31:33
Перевод: Авторский (одноголосый закадровый) Сергей Кузнецов (???)
Субтитры: нидерландские (hardsub)
Режиссер: Генри Сафран / Henri Safran
В ролях: Хезер Томас
Эндрю Кларк
Джеймс Хили
Роуэна Уоллес
Джозеф Боттомс
Имоджен Эннсли
Чарльз ’Бад’ Тингуэлл
Дэвид Рейн
Илэйн Смит
Брайони Бехетс
Описание: Фильм об американском дизайнере, который хочет проникнуть в австралийскую индустрию моды.
Доп. информация: Оцифровка VHS из коллекции Raptorio Rio
IMDb: 7.30 (23)
Релиз
Сэмпл:
Качество видео: VHSRip
Формат видео: AVI
Видео: 704x528 (1.33:1), 25 fps, XviD build 73 ~1901 kbps avg, 0.20 bit/pixel
Аудио: 48 kHz, AC3 Dolby Digital, 2/0 (L,R) ch, ~192 kbps
Формат субтитров: hardsub (неотключаемые)

MediaInfo

Запах страсти - Flair [by Raptorio Rio]\Flair part1.avi
Format : AVI
Format/Info : Audio Video Interleave
File size : 1.37 GiB
Duration : 1 h 32 min
Overall bit rate : 2 103 kb/s
Writing application : VirtualDubMod 1.5.10.3 | www.virtualdub-fr.org || (build 2550/release)
Writing library : VirtualDubMod build 2550/release
Video
ID : 0
Format : MPEG-4 Visual
Format profile : Advanced Simple@L5
Format settings : BVOP1 / Custom Matrix
Format settings, BVOP : 1
Format settings, QPel : No
Format settings, GMC : No warppoints
Format settings, Matrix : Custom
Codec ID : XVID
Codec ID/Hint : XviD
Duration : 1 h 32 min
Bit rate : 1 901 kb/s
Width : 704 pixels
Height : 528 pixels
Display aspect ratio : 4:3
Frame rate : 25.000 FPS
Color space : YUV
Chroma subsampling : 4:2:0
Bit depth : 8 bits
Scan type : Progressive
Compression mode : Lossy
Bits/(Pixel*Frame) : 0.205
Stream size : 1.24 GiB (90%)
Writing library : XviD 73
Audio
ID : 1
Format : AC-3
Format/Info : Audio Coding 3
Codec ID : 2000
Duration : 1 h 32 min
Bit rate mode : Constant
Bit rate : 192 kb/s
Channel(s) : 2 channels
Channel positions : Front: L R
Sampling rate : 48.0 kHz
Frame rate : 31.250 FPS (1536 SPF)
Bit depth : 16 bits
Compression mode : Lossy
Stream size : 128 MiB (9%)
Alignment : Split accross interleaves
Interleave, duration : 40 ms (1.00 video frame)
Interleave, preload duratio : 500 ms
Service kind : Complete Main

Скриншоты


[cybertorrent.ru].t1320.torrent 
Торрент: Зарегистрирован [ 2019-03-22 16:11 ] · 122A69DCD2FD1D2D768FD31F7EDE9A539796CE6F

Скачать .torrent

Скачать

14 KB

Статус: проверено
Скачан: 0 раз
Размер: 2,73 GB
terms.php
[Профиль] [ЛС]
Показать сообщения:    
Ответить на тему

Текущее время: 17-Сен 19:17

Часовой пояс: UTC ± 0



Вы не можете начинать темы
Вы не можете отвечать на сообщения
Вы не можете редактировать свои сообщения
Вы не можете удалять свои сообщения
Вы не можете голосовать в опросах
Вы не можете прикреплять файлы к сообщениям
Вы можете скачивать файлы

Партнеры

Выражаем благодарность всем людям, внесшим вклад в наш сайт в далёком прошлом. Мы помним Вас, гордимся Вами и ждём Вас обратно!

Интересное в сети