Миллиарды / Billions / Сезон: 4 / Серии: 1 из 12 (Колин Бакси, Джон Дал, Анна Боден) [2019, США, Драма, WEB-DLRip] MVO (LostFilm) + Original

Ответить на тему
Статистика раздачи
Размер:  651 MB   |    Зарегистрирован:  5 месяцев 1 день   |    Скачан:  0 раз

Полного источника не было: Никогда

   
 
Автор Сообщение

Рамфоринх ®

Пол: Не указан

Стаж: 5 месяцев 12 дней

Сообщений: 355

Создавать темы 22-Мар-2019 16:10

[Цитировать]

Миллиарды / BillionsОставь их ни с чем- Год выпуска: 2019
Страна: США
Жанр: Драма
Продолжительность: 00:54:27-Перевод: Профессиональный (многоголосый закадровый) - LostFilm-Режиссёр: Колин Бакси, Джон Дал, Анна Боден-В ролях: Пол Джаматти, Дамиан Льюис, Джон Малкович, Азия Кэйт Диллон, Кристофер Денем, Кира Виссер, Роб Морроу, Зина Вилди, Дан Содер, Малачи Вейр, Дэниэл К. Исаак, Келли Окоин, Хадера Ильфенеш, Мэгги Сифф, Фрэнк Хартс, Малин Акерман, Джэк Гор, Дэвид Костабайл, Сьюзан Миснер, Тоби Леонард Мур, Кондола Рашад, Кристофер Пол Ричардс, Терри Кинни, Дэвид Кромер, Гленн Флешер, Айвен Мартин, Джеффри ДеМанн, Стивен Канкен, Нэйтан Дарроу, Сэм Гилрой-Описание: Непреклонный федеральный прокурор Чак Роудс (Пол Джаматти) и изобретательный король хедж-фондов Бобби Аксельрод (Дэмиэн Льюис) создадут убийственный альянс. Планы уничтожить друг друга никто не отменяет, их просто благоразумно отложат. Цель объединения непримиримых противников — разобраться со всеми врагами и предателями одним махом. Речь идет об опасном российском миллиардере Григоре Андолове (Джон Малкович), вероломной протеже Акса Тейлор Мейсон (Азия Кейт Диллон), правой руке Роудса Брайане Коннерти (Тоби Леонард Мур) и генпрокуроре Вейлоне Джоке Джеффко (Клэнси Браун). История красивая, но на деле не такая простая — это же «Миллиарды».- -Качество: WEB-DLRip
Формат: AVI
Видео: 720x400 (16:9), 23.976 fps, XviD build 73, 1401 Kbps, 0.20 bit/pixel
Аудио 1: MP3, 48 kHz, 2 ch, 128 kbps, CBR - Rus
Аудио 2: MP3, 48 kHz, 2 ch, 128 kbps, CBR - Eng
Субтитры: Отсутствуют-Реклама: Отсутствует-Предыдущие и альтернативные раздачи-

MediaInfo

General
Complete name : Downloads\Billions.S04E01.WEB-DLRip.Rus.Eng.LostFilm.avi
Format : AVI
Format/Info : Audio Video Interleave
File size : 651 MiB
Duration : 54mn 27s
Overall bit rate : 1 671 Kbps
Writing application : VirtualDubMod 1.5.10.3 | www.virtualdub-fr.org || (build 2550/release)
Writing library : VirtualDubMod build 2550/release
Video #0
ID : 0
Format : MPEG-4 Visual
Format profile : Advanced Simple@L5
Format settings, BVOP : 1
Format settings, QPel : No
Format settings, GMC : No warppoints
Format settings, Matrix : Custom
Codec ID : XVID
Codec ID/Hint : XviD
Duration : 54mn 27s
Bit rate : 1 401 Kbps
Width : 720 pixels
Height : 400 pixels
Display aspect ratio : 16:9
Frame rate : 23.976 fps
Color space : YUV
Chroma subsampling : 4:2:0
Bit depth : 8 bits
Scan type : Progressive
Compression mode : Lossy
Bits/(Pixel*Frame) : 0.203
Stream size : 546 MiB (84%)
Writing library : XviD 73
Audio #1
ID : 1
Format : MPEG Audio
Format version : Version 1
Format profile : Layer 3
Mode : Joint stereo
Mode extension : MS Stereo
Codec ID : 55
Codec ID/Hint : MP3
Duration : 54mn 27s
Bit rate mode : Constant
Bit rate : 128 Kbps
Channel(s) : 2 channels
Sampling rate : 48.0 KHz
Compression mode : Lossy
Stream size : 49.9 MiB (8%)
Alignment : Aligned on interleaves
Interleave, duration : 42 ms (1.00 video frame)
Interleave, preload duration : 504 ms
Audio #2
ID : 2
Format : MPEG Audio
Format version : Version 1
Format profile : Layer 3
Mode : Joint stereo
Mode extension : MS Stereo
Codec ID : 55
Codec ID/Hint : MP3
Duration : 54mn 27s
Bit rate mode : Constant
Bit rate : 128 Kbps
Channel(s) : 2 channels
Sampling rate : 48.0 KHz
Compression mode : Lossy
Stream size : 49.9 MiB (8%)
Alignment : Aligned on interleaves
Interleave, duration : 42 ms (1.00 video frame)
Interleave, preload duration : 504 ms

Скриншоты

Внимание! Раздача ведётся путём добавления новых серий:

(1) остановить скачивание,
(2) удалить старый торрент у себя из клиента (старые серии удалять не надо),
(3) скачать новый торрент и запустить его у себя в клиенте вместо старого, при этом указать клиенту путь в старую папку куда и должно происходить скачивание новых серий.
Ваш клиент при этом должен произвести хеширование (проверку) старой папки (если не производит сам - помогите ему сделать это), и будет докачивать только те серии которых у вас ещё нет. Старые серии при этом не удаляются, а продолжают раздаваться!
Eсли вы уже удалили старые серии, то предотвратить повторную закачку старых серий можно, отжав галочку в соответсвующих местах при запуске нового торрента. По возможности, желательно не удалять старые серии как можно дольше чтобы релизёр не столько продолжал раздавать старые серии, а смог сконцентрироваться на новых
.

Если ваш рейтинг упадет ниже 0,3, вы не сможете скачивать торренты! Подробнее о рейтинге.

[cybertorrent.ru].t1324.torrent 
Торрент: Зарегистрирован [ 2019-03-22 16:11 ] · 94B3593BD19E56DFE5ABA017CF33F708C9C1FD07

Скачать .torrent

Скачать

13 KB

Статус: проверено
Скачан: 0 раз
Размер: 651 MB
terms.php
[Профиль] [ЛС]
Показать сообщения:    
Ответить на тему

Текущее время: 24-Авг 15:59

Часовой пояс: UTC ± 0



Вы не можете начинать темы
Вы не можете отвечать на сообщения
Вы не можете редактировать свои сообщения
Вы не можете удалять свои сообщения
Вы не можете голосовать в опросах
Вы не можете прикреплять файлы к сообщениям
Вы можете скачивать файлы