Один единственный и навсегда / Серии: 1-4 из 4 (Александр Касаткин) [2011, мелодрама, HDTV 1080i] Original Rus + Sub Rus

Ответить на тему
Статистика раздачи
Размер:  5,84 GB   |    Зарегистрирован:  5 месяцев 23 дня   |    Скачан:  0 раз

Полного источника не было: Никогда

   
 
Автор Сообщение

sss777sss ®

Пол: Не указан

Стаж: 6 месяцев 2 дня

Сообщений: 423

Создавать темы 22-Мар-2019 16:10

[Цитировать]

Один единственный и навсегда
Производство: Кинокомпания "Тесей", Продюсерский центр "Фабула"
Жанр: мелодрама
Год выпуска: 2011
Продолжительность: ~ 43:00
Субтитры: Русские (внешние)
Режиссёр: Александр Касаткин
В ролях: Юлия Кадушкевич, Андрей Фролов (II), Полина Сыркина, Михаил Евланов, Валентина Светлова (II), Тамара Миронова, Владимир Божков, Анна Кисель, Алёна Козырева, Матвей Шкуратов, Зоя Белохвостик, Зинаида Зубкова, Наталья Волчек, Лариса Маршалова, Сергей Журавель, Кристина Манулик, Валерий Анисенко, Игорь Сидорчик, Олег Ткачёв, Ирина Кабанова, Люся Лущик, Елена Родак-Шкуратова, Светлана Никифорова
Описание: Однажды Наталья увидела по телевизору врача московской клиники и… влюбилась в него. Вместе с подругой Ольгой она приезжает в Москву, чтобы встретиться с Андреем. В столице с провинциалками случается беда: спасая подругу, Наталья попадает под машину и получает серьезные травмы. Так она попадает в больницу, где работает Андрей. Но он обращает внимание не на влюбленную в него Наташу, а на красавицу Ольгу. И что такое чувства подруги и женская дружба по сравнению с перспективой остаться в Москве? Конечно, Оля закручивает с симпатичным доктором бурный роман. А в это время в Наталью влюбляется виновник аварии Игорь…
Доп. информация:
Автор релиза -
Источник - HDTV 1080i TS - моя запись с канала "Россия HD" (регион Москва)
Исходник субтитров - DVB TS 576i - моя запись с канала "Россия-1" (регион Урал)
Рекламы нет!
Все раздачи сериала




Качество видео: HDTV 1080i
Формат видео: TS
Видео кодек: MPEG-4
Аудио кодек: МР2
Видео: 1920x1080 (16:9), 25.000 fps, ~4300 kbps, ~ 0.080 bit/pixel
Аудио: 48000 Гц, 2 ch, 192 kbps
Формат субтитров: softsub (SRT)

MediaInfo

Общее
Идентификатор : 1 (0x1)
Полное имя : D:\Один.единственный.и.навсегда.2011.HDTV.1080i-ylnian\Один.единственный.и.навсегда.2011.HDTV.1080i-ylnian_1.ts
Формат : MPEG-TS
Размер файла : 1,82 Гбайт
Продолжительность : 45 м. 59 с.
Режим общего битрейта : Переменный
Общий поток : 5657 Кбит/сек
Видео
Идентификатор : 1178 (0x49A)
Идентификатор меню : 1138 (0x472)
Формат : AVC
Формат/Информация : Advanced Video Codec
Профиль формата : Main@L4
Настройки формата : CABAC / 4 Ref Frames
Параметр CABAC формата : Да
Параметр RefFrames формата : 4 кадра
Параметр GOP формата : M=4, N=32
Идентификатор кодека : 27
Продолжительность : 45 м. 59 с.
Битрейт : 5184 Кбит/сек
Ширина : 1920 пикселей
Высота : 1080 пикселей
Соотношение сторон : 16:9
Частота кадров : 25,000 кадров/сек
Стандарт вещания : Component
Цветовое пространство : YUV
Субдискретизация насыщенности : 4:2:0
Битовая глубина : 8 бит
Тип развёртки : Чересстрочная
Метод сохранения типа развёртки : Раздельные поля
Порядок развёртки : Верхнее поле первое
Бит/(Пиксели*Кадры) : 0.100
Размер потока : 1,67 Гбайт (92%)
Цветовой диапазон : Limited
Основные цвета : BT.709
Характеристики трансфера : BT.709
Коэффициенты матрицы : BT.709
Аудио
Идентификатор : 1179 (0x49B)
Идентификатор меню : 1138 (0x472)
Формат : MPEG Audio
Версия формата : Version 1
Профиль формата : Layer 2
Идентификатор кодека : 3
Продолжительность : 45 м. 59 с.
Вид битрейта : Постоянный
Битрейт : 192 Кбит/сек
Каналы : 2 канала
Частота : 48,0 КГц
Частота кадров : 41,667 кадра/сек (1152 SPF)
Метод сжатия : С потерями
Задержка видео : -80 мс.
Размер потока : 63,2 Мбайт (3%)
Язык : Russian
Общее
Полное имя : D:\Один.единственный.и.навсегда.2011.HDTV.1080i-ylnian\Один.единственный.и.навсегда.2011.HDTV.1080i-ylnian_1_rus.srt
Размер файла : 60,3 Кбайт
Общее
Идентификатор : 1 (0x1)
Полное имя : D:\Один.единственный.и.навсегда.2011.HDTV.1080i-ylnian\Один.единственный.и.навсегда.2011.HDTV.1080i-ylnian_2.ts
Формат : MPEG-TS
Размер файла : 1,27 Гбайт
Продолжительность : 39 м. 55 с.
Режим общего битрейта : Переменный
Общий поток : 4570 Кбит/сек
Видео
Идентификатор : 1178 (0x49A)
Идентификатор меню : 1138 (0x472)
Формат : AVC
Формат/Информация : Advanced Video Codec
Профиль формата : Main@L4
Настройки формата : CABAC / 4 Ref Frames
Параметр CABAC формата : Да
Параметр RefFrames формата : 4 кадра
Идентификатор кодека : 27
Продолжительность : 39 м. 55 с.
Битрейт : 4150 Кбит/сек
Ширина : 1920 пикселей
Высота : 1080 пикселей
Соотношение сторон : 16:9
Частота кадров : 25,000 кадров/сек
Стандарт вещания : Component
Цветовое пространство : YUV
Субдискретизация насыщенности : 4:2:0
Битовая глубина : 8 бит
Тип развёртки : Чересстрочная
Метод сохранения типа развёртки : Раздельные поля
Порядок развёртки : Верхнее поле первое
Бит/(Пиксели*Кадры) : 0.080
Размер потока : 1,16 Гбайт (91%)
Цветовой диапазон : Limited
Основные цвета : BT.709
Характеристики трансфера : BT.709
Коэффициенты матрицы : BT.709
Аудио
Идентификатор : 1179 (0x49B)
Идентификатор меню : 1138 (0x472)
Формат : MPEG Audio
Версия формата : Version 1
Профиль формата : Layer 2
Идентификатор кодека : 3
Продолжительность : 39 м. 55 с.
Вид битрейта : Постоянный
Битрейт : 192 Кбит/сек
Каналы : 2 канала
Частота : 48,0 КГц
Частота кадров : 41,667 кадра/сек (1152 SPF)
Метод сжатия : С потерями
Задержка видео : -80 мс.
Размер потока : 54,8 Мбайт (4%)
Язык : Russian
Общее
Полное имя : D:\Один.единственный.и.навсегда.2011.HDTV.1080i-ylnian\Один.единственный.и.навсегда.2011.HDTV.1080i-ylnian_2_rus.srt
Формат : SubRip
Размер файла : 48,7 Кбайт
Текст
Формат : SubRip
Метод сжатия : Без потерь
Общее
Идентификатор : 1 (0x1)
Полное имя : D:\Один.единственный.и.навсегда.2011.HDTV.1080i-ylnian\Один.единственный.и.навсегда.2011.HDTV.1080i-ylnian_3.ts
Формат : MPEG-TS
Размер файла : 1,30 Гбайт
Продолжительность : 40 м. 41 с.
Режим общего битрейта : Переменный
Общий поток : 4590 Кбит/сек
Видео
Идентификатор : 1178 (0x49A)
Идентификатор меню : 1138 (0x472)
Формат : AVC
Формат/Информация : Advanced Video Codec
Профиль формата : Main@L4
Настройки формата : CABAC / 4 Ref Frames
Параметр CABAC формата : Да
Параметр RefFrames формата : 4 кадра
Идентификатор кодека : 27
Продолжительность : 40 м. 41 с.
Битрейт : 4169 Кбит/сек
Ширина : 1920 пикселей
Высота : 1080 пикселей
Соотношение сторон : 16:9
Частота кадров : 25,000 кадров/сек
Стандарт вещания : Component
Цветовое пространство : YUV
Субдискретизация насыщенности : 4:2:0
Битовая глубина : 8 бит
Тип развёртки : Чересстрочная
Метод сохранения типа развёртки : Раздельные поля
Порядок развёртки : Верхнее поле первое
Бит/(Пиксели*Кадры) : 0.080
Размер потока : 1,19 Гбайт (91%)
Цветовой диапазон : Limited
Основные цвета : BT.709
Характеристики трансфера : BT.709
Коэффициенты матрицы : BT.709
Аудио
Идентификатор : 1179 (0x49B)
Идентификатор меню : 1138 (0x472)
Формат : MPEG Audio
Версия формата : Version 1
Профиль формата : Layer 2
Идентификатор кодека : 3
Продолжительность : 40 м. 41 с.
Вид битрейта : Постоянный
Битрейт : 192 Кбит/сек
Каналы : 2 канала
Частота : 48,0 КГц
Частота кадров : 41,667 кадра/сек (1152 SPF)
Метод сжатия : С потерями
Размер потока : 55,9 Мбайт (4%)
Язык : Russian
Общее
Полное имя : D:\Один.единственный.и.навсегда.2011.HDTV.1080i-ylnian\Один.единственный.и.навсегда.2011.HDTV.1080i-ylnian_3_rus.srt
Формат : SubRip
Размер файла : 45,9 Кбайт
Текст
Формат : SubRip
Метод сжатия : Без потерь
Общее
Идентификатор : 1 (0x1)
Полное имя : D:\Один.единственный.и.навсегда.2011.HDTV.1080i-ylnian\Один.единственный.и.навсегда.2011.HDTV.1080i-ylnian_4.ts
Формат : MPEG-TS
Размер файла : 1,44 Гбайт
Продолжительность : 46 м. 23 с.
Режим общего битрейта : Переменный
Общий поток : 4449 Кбит/сек
Видео
Идентификатор : 1178 (0x49A)
Идентификатор меню : 1138 (0x472)
Формат : AVC
Формат/Информация : Advanced Video Codec
Профиль формата : Main@L4
Настройки формата : CABAC / 4 Ref Frames
Параметр CABAC формата : Да
Параметр RefFrames формата : 4 кадра
Идентификатор кодека : 27
Продолжительность : 46 м. 23 с.
Битрейт : 4036 Кбит/сек
Ширина : 1920 пикселей
Высота : 1080 пикселей
Соотношение сторон : 16:9
Частота кадров : 25,000 кадров/сек
Стандарт вещания : Component
Цветовое пространство : YUV
Субдискретизация насыщенности : 4:2:0
Битовая глубина : 8 бит
Тип развёртки : Чересстрочная
Метод сохранения типа развёртки : Раздельные поля
Порядок развёртки : Верхнее поле первое
Бит/(Пиксели*Кадры) : 0.078
Размер потока : 1,31 Гбайт (91%)
Цветовой диапазон : Limited
Основные цвета : BT.709
Характеристики трансфера : BT.709
Коэффициенты матрицы : BT.709
Аудио
Идентификатор : 1179 (0x49B)
Идентификатор меню : 1138 (0x472)
Формат : MPEG Audio
Версия формата : Version 1
Профиль формата : Layer 2
Идентификатор кодека : 3
Продолжительность : 46 м. 23 с.
Вид битрейта : Постоянный
Битрейт : 192 Кбит/сек
Каналы : 2 канала
Частота : 48,0 КГц
Частота кадров : 41,667 кадра/сек (1152 SPF)
Метод сжатия : С потерями
Задержка видео : -40 мс.
Размер потока : 63,7 Мбайт (4%)
Язык : Russian
Общее
Полное имя : D:\Один.единственный.и.навсегда.2011.HDTV.1080i-ylnian\Один.единственный.и.навсегда.2011.HDTV.1080i-ylnian_4_rus.srt
Формат : SubRip
Размер файла : 56,3 Кбайт
Текст
Формат : SubRip
Метод сжатия : Без потерь
[cybertorrent.ru].t1326.torrent 
Торрент: Зарегистрирован [ 2019-03-22 16:11 ] · 3D41F71C44CC7057A3F87B3846283AF359509FEE

Скачать .torrent

Скачать

31 KB

Статус: проверено
Скачан: 0 раз
Размер: 5,84 GB
terms.php
[Профиль] [ЛС]
Показать сообщения:    
Ответить на тему

Текущее время: 15-Сен 09:38

Часовой пояс: UTC ± 0



Вы не можете начинать темы
Вы не можете отвечать на сообщения
Вы не можете редактировать свои сообщения
Вы не можете удалять свои сообщения
Вы не можете голосовать в опросах
Вы не можете прикреплять файлы к сообщениям
Вы можете скачивать файлы

Партнеры

Выражаем благодарность всем людям, внесшим вклад в наш сайт в далёком прошлом. Мы помним Вас, гордимся Вами и ждём Вас обратно!

Интересное в сети