Охота / Серии: 1-4 из 4 (Стас Иванов) [2014, детектив, криминал, HDTV 1080i] Original Rus + Sub Rus

Ответить на тему
Статистика раздачи
Размер:  12,3 GB   |    Зарегистрирован:  4 месяца 26 дней   |    Скачан:  0 раз

Полного источника не было: Никогда

   
 
Автор Сообщение

sss777sss ®

Пол: Не указан

Стаж: 5 месяцев 6 дней

Сообщений: 397

Создавать темы 22-Мар-2019 16:10

[Цитировать]

Охота
Производство: Кинокомпания «НТВ-КИНО», ООО «Альянс Профи»
Жанр: детектив, криминал
Год выпуска: 2014
Продолжительность: ~ 45:00
Субтитры: Русские (внешние)
Режиссёр: Стас Иванов
В ролях: Михаил Гаврилов (II), Павел Трубинер, Александр Константинов, Валерий Соловьёв, Анастасия Стежко, Алексей Федькин, Владимир Устюгов, Полина Толстун, Павел Шингарев, Дмитрий Гусев, Александр Шатохин, Евгений Данчевский, Владимир Терещенко, Арсен Атоян, Сергей Кисса
Описание: В Самаре, происходит громкое убийство, известного на весь город антиквара. Расследование поручают лучшей оперативной группе, группе Лещинского. В ходе расследования убийства антиквара, группа Лещинского выходит на след банды Арсена Сакрисяна,совершившей нападение. Тем временем выясняется, что в городе объявился известный криминальный авторитет «Шахматист».
Доп. информация:
Автор релиза -
Исходник видео и аудио - HDTV TS 1080i - моя запись с канала "Наше Крутое HD"
Русские субтитры рипнуты мной с сайта MEGOGO
Рекламы нет!
Все раздачи сериала




Качество видео: HDTV 1080i
Формат видео: TS
Видео кодек: MPEG-4
Аудио кодек 1: МР2
Аудио кодек 2: AC3
Видео: 1920x1080 (16:9), 25.000 fps, ~8600 kbps, ~ 0.164 bit/pixel
Аудио 1: 48000 Гц, 2 ch, 192 kbps
Аудио 2: 48000 Гц, 6 ch, 448 kbps
Формат субтитров: softsub (SRT)

MediaInfo

Общее
Идентификатор : 1 (0x1)
Полное имя : D:\Охота.2014.HDTV.1080i-ylnian\Охота.2014.HDTV.1080i-ylnian_1.ts
Формат : MPEG-TS
Размер файла : 3,28 Гбайт
Продолжительность : 45 м. 12 с.
Режим общего битрейта : Переменный
Общий поток : 10,4 Мбит/сек
Видео
Идентификатор : 3531 (0xDCB)
Идентификатор меню : 17013 (0x4275)
Формат : AVC
Формат/Информация : Advanced Video Codec
Профиль формата : Main@L4
Настройки формата : CABAC / 3 Ref Frames
Параметр CABAC формата : Да
Параметр RefFrames формата : 3 кадра
Параметр GOP формата : M=4, N=32
Идентификатор кодека : 27
Продолжительность : 45 м. 12 с.
Битрейт : 9236 Кбит/сек
Ширина : 1920 пикселей
Высота : 1080 пикселей
Соотношение сторон : 16:9
Частота кадров : 25,000 кадров/сек
Цветовое пространство : YUV
Субдискретизация насыщенности : 4:2:0
Битовая глубина : 8 бит
Тип развёртки : Чересстрочная
Метод сохранения типа развёртки : Раздельные поля
Порядок развёртки : Верхнее поле первое
Бит/(Пиксели*Кадры) : 0.178
Размер потока : 2,92 Гбайт (89%)
Цветовой диапазон : Limited
Основные цвета : BT.709
Характеристики трансфера : BT.709
Коэффициенты матрицы : BT.709
Аудио #1
Идентификатор : 3532 (0xDCC)
Идентификатор меню : 17013 (0x4275)
Формат : MPEG Audio
Версия формата : Version 1
Профиль формата : Layer 2
Идентификатор кодека : 3
Продолжительность : 45 м. 12 с.
Вид битрейта : Постоянный
Битрейт : 192 Кбит/сек
Каналы : 2 канала
Частота : 48,0 КГц
Частота кадров : 41,667 кадра/сек (1152 SPF)
Метод сжатия : С потерями
Задержка видео : -120 мс.
Размер потока : 62,1 Мбайт (2%)
Язык : Russian
Аудио #2
Идентификатор : 3533 (0xDCD)
Идентификатор меню : 17013 (0x4275)
Формат : AC-3
Формат/Информация : Audio Coding 3
Коммерческое название : Dolby Digital
Идентификатор кодека : 6
Продолжительность : 45 м. 12 с.
Вид битрейта : Постоянный
Битрейт : 448 Кбит/сек
Каналы : 6 каналов
Channel layout : L R C LFE Ls Rs
Частота : 48,0 КГц
Частота кадров : 31,250 кадров/сек (1536 SPF)
Битовая глубина : 16 бит
Метод сжатия : С потерями
Задержка видео : -120 мс.
Размер потока : 145 Мбайт (4%)
Язык : Russian
ServiceKind/String : Complete Main
Общее
Полное имя : D:\Охота.2014.HDTV.1080i-ylnian\Охота.2014.HDTV.1080i-ylnian_1_rus.srt
Формат : SubRip
Размер файла : 52,2 Кбайт
Текст
Формат : SubRip
Метод сжатия : Без потерь
Общее
Идентификатор : 1 (0x1)
Полное имя : D:\Охота.2014.HDTV.1080i-ylnian\Охота.2014.HDTV.1080i-ylnian_2.ts
Формат : MPEG-TS
Размер файла : 3,10 Гбайт
Продолжительность : 44 м. 53 с.
Режим общего битрейта : Переменный
Общий поток : 9887 Кбит/сек
Видео
Идентификатор : 3531 (0xDCB)
Идентификатор меню : 17013 (0x4275)
Формат : AVC
Формат/Информация : Advanced Video Codec
Профиль формата : Main@L4
Настройки формата : CABAC / 3 Ref Frames
Параметр CABAC формата : Да
Параметр RefFrames формата : 3 кадра
Параметр GOP формата : M=4, N=32
Идентификатор кодека : 27
Продолжительность : 44 м. 53 с.
Битрейт : 8752 Кбит/сек
Ширина : 1920 пикселей
Высота : 1080 пикселей
Соотношение сторон : 16:9
Частота кадров : 25,000 кадров/сек
Цветовое пространство : YUV
Субдискретизация насыщенности : 4:2:0
Битовая глубина : 8 бит
Тип развёртки : Чересстрочная
Метод сохранения типа развёртки : Раздельные поля
Порядок развёртки : Верхнее поле первое
Бит/(Пиксели*Кадры) : 0.169
Размер потока : 2,74 Гбайт (89%)
Цветовой диапазон : Limited
Основные цвета : BT.709
Характеристики трансфера : BT.709
Коэффициенты матрицы : BT.709
Аудио #1
Идентификатор : 3532 (0xDCC)
Идентификатор меню : 17013 (0x4275)
Формат : MPEG Audio
Версия формата : Version 1
Профиль формата : Layer 2
Идентификатор кодека : 3
Продолжительность : 44 м. 53 с.
Вид битрейта : Постоянный
Битрейт : 192 Кбит/сек
Каналы : 2 канала
Частота : 48,0 КГц
Частота кадров : 41,667 кадра/сек (1152 SPF)
Метод сжатия : С потерями
Задержка видео : -80 мс.
Размер потока : 61,7 Мбайт (2%)
Язык : Russian
Аудио #2
Идентификатор : 3533 (0xDCD)
Идентификатор меню : 17013 (0x4275)
Формат : AC-3
Формат/Информация : Audio Coding 3
Коммерческое название : Dolby Digital
Идентификатор кодека : 6
Продолжительность : 44 м. 53 с.
Вид битрейта : Постоянный
Битрейт : 448 Кбит/сек
Каналы : 6 каналов
Channel layout : L R C LFE Ls Rs
Частота : 48,0 КГц
Частота кадров : 31,250 кадров/сек (1536 SPF)
Битовая глубина : 16 бит
Метод сжатия : С потерями
Задержка видео : -80 мс.
Размер потока : 144 Мбайт (5%)
Язык : Russian
ServiceKind/String : Complete Main
Общее
Полное имя : D:\Охота.2014.HDTV.1080i-ylnian\Охота.2014.HDTV.1080i-ylnian_2_rus.srt
Формат : SubRip
Размер файла : 50,8 Кбайт
Текст
Формат : SubRip
Метод сжатия : Без потерь
Общее
Идентификатор : 1 (0x1)
Полное имя : D:\Охота.2014.HDTV.1080i-ylnian\Охота.2014.HDTV.1080i-ylnian_3.ts
Формат : MPEG-TS
Размер файла : 2,98 Гбайт
Продолжительность : 45 м. 14 с.
Режим общего битрейта : Переменный
Общий поток : 9436 Кбит/сек
Видео
Идентификатор : 3531 (0xDCB)
Идентификатор меню : 17013 (0x4275)
Формат : AVC
Формат/Информация : Advanced Video Codec
Профиль формата : Main@L4
Настройки формата : CABAC / 3 Ref Frames
Параметр CABAC формата : Да
Параметр RefFrames формата : 3 кадра
Параметр GOP формата : M=4, N=32
Идентификатор кодека : 27
Продолжительность : 45 м. 14 с.
Битрейт : 8323 Кбит/сек
Ширина : 1920 пикселей
Высота : 1080 пикселей
Соотношение сторон : 16:9
Частота кадров : 25,000 кадров/сек
Цветовое пространство : YUV
Субдискретизация насыщенности : 4:2:0
Битовая глубина : 8 бит
Тип развёртки : Чересстрочная
Метод сохранения типа развёртки : Раздельные поля
Порядок развёртки : Верхнее поле первое
Бит/(Пиксели*Кадры) : 0.161
Размер потока : 2,63 Гбайт (88%)
Цветовой диапазон : Limited
Основные цвета : BT.709
Характеристики трансфера : BT.709
Коэффициенты матрицы : BT.709
Аудио #1
Идентификатор : 3532 (0xDCC)
Идентификатор меню : 17013 (0x4275)
Формат : MPEG Audio
Версия формата : Version 1
Профиль формата : Layer 2
Идентификатор кодека : 3
Продолжительность : 45 м. 14 с.
Вид битрейта : Постоянный
Битрейт : 192 Кбит/сек
Каналы : 2 канала
Частота : 48,0 КГц
Частота кадров : 41,667 кадра/сек (1152 SPF)
Метод сжатия : С потерями
Размер потока : 62,1 Мбайт (2%)
Язык : Russian
Аудио #2
Идентификатор : 3533 (0xDCD)
Идентификатор меню : 17013 (0x4275)
Формат : AC-3
Формат/Информация : Audio Coding 3
Коммерческое название : Dolby Digital
Идентификатор кодека : 6
Продолжительность : 45 м. 14 с.
Вид битрейта : Постоянный
Битрейт : 448 Кбит/сек
Каналы : 6 каналов
Channel layout : L R C LFE Ls Rs
Частота : 48,0 КГц
Частота кадров : 31,250 кадров/сек (1536 SPF)
Битовая глубина : 16 бит
Метод сжатия : С потерями
Размер потока : 145 Мбайт (5%)
Язык : Russian
ServiceKind/String : Complete Main
Общее
Полное имя : D:\Охота.2014.HDTV.1080i-ylnian\Охота.2014.HDTV.1080i-ylnian_3_rus.srt
Формат : SubRip
Размер файла : 49,4 Кбайт
Текст
Формат : SubRip
Метод сжатия : Без потерь
Общее
Идентификатор : 1 (0x1)
Полное имя : D:\Охота.2014.HDTV.1080i-ylnian\Охота.2014.HDTV.1080i-ylnian_4.ts
Формат : MPEG-TS
Размер файла : 2,94 Гбайт
Продолжительность : 45 м. 2 с.
Режим общего битрейта : Переменный
Общий поток : 9340 Кбит/сек
Видео
Идентификатор : 3531 (0xDCB)
Идентификатор меню : 17013 (0x4275)
Формат : AVC
Формат/Информация : Advanced Video Codec
Профиль формата : Main@L4
Настройки формата : CABAC / 3 Ref Frames
Параметр CABAC формата : Да
Параметр RefFrames формата : 3 кадра
Параметр GOP формата : M=4, N=32
Идентификатор кодека : 27
Продолжительность : 45 м. 2 с.
Битрейт : 8232 Кбит/сек
Ширина : 1920 пикселей
Высота : 1080 пикселей
Соотношение сторон : 16:9
Частота кадров : 25,000 кадров/сек
Цветовое пространство : YUV
Субдискретизация насыщенности : 4:2:0
Битовая глубина : 8 бит
Тип развёртки : Чересстрочная
Метод сохранения типа развёртки : Раздельные поля
Порядок развёртки : Верхнее поле первое
Бит/(Пиксели*Кадры) : 0.159
Размер потока : 2,59 Гбайт (88%)
Цветовой диапазон : Limited
Основные цвета : BT.709
Характеристики трансфера : BT.709
Коэффициенты матрицы : BT.709
Аудио #1
Идентификатор : 3532 (0xDCC)
Идентификатор меню : 17013 (0x4275)
Формат : MPEG Audio
Версия формата : Version 1
Профиль формата : Layer 2
Идентификатор кодека : 3
Продолжительность : 45 м. 2 с.
Вид битрейта : Постоянный
Битрейт : 192 Кбит/сек
Каналы : 2 канала
Частота : 48,0 КГц
Частота кадров : 41,667 кадра/сек (1152 SPF)
Метод сжатия : С потерями
Задержка видео : -80 мс.
Размер потока : 61,8 Мбайт (2%)
Язык : Russian
Аудио #2
Идентификатор : 3533 (0xDCD)
Идентификатор меню : 17013 (0x4275)
Формат : AC-3
Формат/Информация : Audio Coding 3
Коммерческое название : Dolby Digital
Идентификатор кодека : 6
Продолжительность : 45 м. 2 с.
Вид битрейта : Постоянный
Битрейт : 448 Кбит/сек
Каналы : 6 каналов
Channel layout : L R C LFE Ls Rs
Частота : 48,0 КГц
Частота кадров : 31,250 кадров/сек (1536 SPF)
Битовая глубина : 16 бит
Метод сжатия : С потерями
Задержка видео : -80 мс.
Размер потока : 144 Мбайт (5%)
Язык : Russian
ServiceKind/String : Complete Main
Общее
Полное имя : D:\Охота.2014.HDTV.1080i-ylnian\Охота.2014.HDTV.1080i-ylnian_4_rus.srt
Формат : SubRip
Размер файла : 37,7 Кбайт
Текст
Формат : SubRip
Метод сжатия : Без потерь
[cybertorrent.ru].t1334.torrent 
Торрент: Зарегистрирован [ 2019-03-22 16:11 ] · 98EF062DFF04B535C939382FCE248E12C22FB2B0

Скачать .torrent

Скачать

63 KB

Статус: проверено
Скачан: 0 раз
Размер: 12,3 GB
terms.php
[Профиль] [ЛС]
Показать сообщения:    
Ответить на тему

Текущее время: 18-Авг 15:16

Часовой пояс: UTC ± 0



Вы не можете начинать темы
Вы не можете отвечать на сообщения
Вы не можете редактировать свои сообщения
Вы не можете удалять свои сообщения
Вы не можете голосовать в опросах
Вы не можете прикреплять файлы к сообщениям
Вы можете скачивать файлы