Гринч / The Grinch (Ярроу Чейни / Yarrow Cheney, Скотт Моужер / Scott Mosier) [2018, Китай, США, Франция, Япония, мультфильм, фэнтези, комедия, семейный, BDRip] Dub (iTunes)

Ответить на тему
Статистика раздачи
Размер:  1,46 GB   |    Зарегистрирован:  4 месяца 27 дней   |    Скачан:  0 раз

Полного источника не было: Никогда

   
 
Автор Сообщение

karlll ®

Пол: Не указан

Стаж: 5 месяцев 6 дней

Сообщений: 163

Создавать темы 22-Мар-2019 16:10

[Цитировать]

Гринч / The Grinch
Страна: Китай, США, Франция, Япония
Жанр: мультфильм, фэнтези, комедия, семейный
Год выпуска: 2018
Продолжительность: 01:25:49-Перевод: Профессиональный (дублированный)
Субтитры: русские (форс.)
Оригинальная аудиодорожка: нет-Режиссер: Ярроу Чейни / Yarrow Cheney, Скотт Моужер / Scott Mosier-Роли озвучивали: Бенедикт Камбербэтч, Кэмерон Сили, Рашида Джонс, Фаррелл Уильямс, Тристан О`Хара, Кенан Томпсон, Сэм Лаваньино, Рамон Хэмилтон, Анджела Лэнсбери, Скарлет Эстевез, Майкл Битти, Лори Алан, Ивэн Кишияма-Описание: Любой бы на месте Гринча позеленел и взбесился. Как порядочный интроверт, он живёт в тёмной пещере на самой вершине горы подальше ото всех, но эти «все» готовят грандиознейшее празднование нового года. Они шумят, всё украшают и дико бесят. Кто бы отказал себе в удовольствии испортить праздник? Гринч решает украсть Новый год.- -Качество видео: BDRip | The.Grinch.2018.MULTi.COMPLETE.BLURAY-COJONUDO
Формат видео: AVI
Видео: 720x304 (2.37:1), 23.976 fps, XviD build 73 ~2035 kbps avg, 0.39 bit/pixel
Аудио: 48 kHz, AC3 Dolby Digital, 3/2 (L,C,R,l,r) + LFE ch, ~384 kbps-[box]Сэмпл[/box]-

MediaInfo

Код:Формат : AVI
Формат/Информация : Audio Video Interleave
Размер файла : 1,46 Гбайт
Продолжительность : 1 ч. 25 м.
Общий поток : 2429 Кбит/сек
Программа кодирования : VirtualDubMod 1.5.10.3 | www.virtualdub-fr.org || (build 2550/release)
Библиотека кодирования : VirtualDubMod build 2550/release
Видео
Идентификатор : 0
Формат : MPEG-4 Visual
Профиль формата : Advanced Simple@L5
Настройки формата : BVOP1 / Custom Matrix
Параметр BVOP формата : 1
Параметр QPel формата : Нет
Параметр GMC формата : Без точки перехода
Параметр матрицы формата : Выборочная
Идентификатор кодека : XVID
Идентификатор кодека/Подсказка : XviD
Продолжительность : 1 ч. 25 м.
Битрейт : 2036 Кбит/сек
Ширина : 720 пикселей
Высота : 304 пикселя
Соотношение сторон : 2,35:1
Частота кадров : 23,976 (24000/1001) кадра/сек
Цветовое пространство : YUV
Субдискретизация насыщенности : 4:2:0
Битовая глубина : 8 бит
Тип развёртки : Прогрессивная
Метод сжатия : С потерями
Бит/(Пиксели*Кадры) : 0.388
Размер потока : 1,22 Гбайт (84%)
Библиотека кодирования : XviD 73
Аудио
Идентификатор : 1
Формат : AC-3
Формат/Информация : Audio Coding 3
Коммерческое название : Dolby Digital
Идентификатор кодека : 2000
Продолжительность : 1 ч. 25 м.
Вид битрейта : Постоянный
Битрейт : 384 Кбит/сек
Каналы : 6 каналов
Channel layout : L R C LFE Ls Rs
Частота : 48,0 КГц
Частота кадров : 31,250 кадров/сек (1536 SPF)
Битовая глубина : 16 бит
Метод сжатия : С потерями
Размер потока : 236 Мбайт (16%)
Выравнивание : Разделение по промежуткам
Продолжительность промежутка : 42 мс. (1,00 видеокадр)
Время предзагрузки промежутка : 500 мс.
ServiceKind/String : Complete Main

Скриншоты


[cybertorrent.ru].t1335.torrent 
Торрент: Зарегистрирован [ 2019-03-22 16:11 ] · F1A85836F480826F6E813F0CB771D6EAE638FFC1

Скачать .torrent

Скачать

15 KB

Статус: проверено
Скачан: 0 раз
Размер: 1,46 GB
terms.php
[Профиль] [ЛС]
Показать сообщения:    
Ответить на тему

Текущее время: 19-Авг 05:27

Часовой пояс: UTC ± 0



Вы не можете начинать темы
Вы не можете отвечать на сообщения
Вы не можете редактировать свои сообщения
Вы не можете удалять свои сообщения
Вы не можете голосовать в опросах
Вы не можете прикреплять файлы к сообщениям
Вы можете скачивать файлы