Малявкин и компания (Юрий Кузьменко) [1986, детский, DVB]

Ответить на тему
Статистика раздачи
Размер:  3,27 GB   |    Зарегистрирован:  2 месяца 29 дней   |    Скачан:  0 раз

Полного источника не было: Никогда

   
 
Автор Сообщение

Leonard ®

Пол: Не указан

Стаж: 3 месяца 4 дня

Сообщений: 54

Создавать темы 18-Мар-2019 10:02

[Цитировать]

Малявкин и компания (2 серии)
Жанр: детский
Год выпуска: 1986
Продолжительность: 01:03:15 + 01:03:16
Режиссёр: Юрий Кузьменко
В ролях: Сережа Савостьянов, Максим Гапонов, Ася Власенко, Глеб Киселев, Дмитрий Завидов, Владимир Никаноров, Владимир Герасимов, Нелли Ильина-Гуцол, Татьяна Пельтцер, В. Кауппи, Светлана Акимова, Владимир Наумцев, Франческа Переплетчикова, А. Горобьев, Игорь Ефимов
Описание: Об ученике четвертого класса Малявкине, постоянно попадающем в несуразные истории из самых лучших побуждений и доставляющем много хлопот своим учителям
Доп. информация: Запись потока *.ts со спутника EUTELSAT 36A/B, 36° в.д., ремукс в *.mkv программой VideoReDo.
Качество видео: DVB
Формат видео: MKV
Видео: MPEG2 Video, 720(768)x576 (4:3), 25,000 кадров/сек, 3 431 Кбит/сек
Аудио: MPEG Audio, 48,0 КГц, 192 Кбит/сек, 2 канала

MediaInfo

General
Unique ID : 123118820833562941166748120496742442553 (0x5C9FD2873D790F1CCEDAB1EE007DA639)
Complete name : D:\Малявкин и компания\МАЛЯВКИН И КОМПАНИЯ 1 (Karusel int).mkv
Format : Matroska
Format version : Version 4 / Version 2
File size : 1.63 GiB
Duration : 1 h 3 min
Overall bit rate mode : Variable
Overall bit rate : 3 696 kb/s
Writing application : Lavf57.71.100
Writing library : Lavf57.71.100
ErrorDetectionType : Per level 1
Video
ID : 1
Format : MPEG Video
Format version : Version 2
Format profile : Main@Main
Format settings : BVOP
Format settings, BVOP : Yes
Format settings, Matrix : Default
Format settings, GOP : Variable
Codec ID : V_MPEG2
Codec ID/Info : MPEG 1 or 2 Video
Duration : 1 h 3 min
Bit rate mode : Variable
Bit rate : 3 431 kb/s
Width : 720 pixels
Height : 576 pixels
Display aspect ratio : 4:3
Frame rate mode : Constant
Frame rate : 25.000 FPS
Standard : PAL
Color space : YUV
Chroma subsampling : 4:2:0
Bit depth : 8 bits
Scan type : Progressive
Compression mode : Lossy
Bits/(Pixel*Frame) : 0.331
Time code of first frame : 00:00:00:00
Time code source : Group of pictures header
GOP, Open/Closed : Open
GOP, Open/Closed of first f : Closed
Stream size : 1.52 GiB (93%)
Default : Yes
Forced : No
Audio
ID : 2
Format : MPEG Audio
Format version : Version 1
Format profile : Layer 2
Codec ID : A_MPEG/L2
Codec ID/Hint : MP2
Duration : 1 h 3 min
Bit rate mode : Constant
Bit rate : 192 kb/s
Channel(s) : 2 channels
Sampling rate : 48.0 kHz
Compression mode : Lossy
Stream size : 86.9 MiB (5%)
Default : Yes
Forced : No
General
Unique ID : 160012188123453762386972385951750349941 (0x786139F91C84C87788F1F9FA70B0E475)
Complete name : D:\Torrent\МАЛЯВКИН И КОМПАНИЯ\МАЛЯВКИН И КОМПАНИЯ 2 (Karusel int).mkv
Format : Matroska
Format version : Version 4 / Version 2
File size : 1.63 GiB
Duration : 1 h 3 min
Overall bit rate mode : Variable
Overall bit rate : 3 696 kb/s
Writing application : Lavf57.71.100
Writing library : Lavf57.71.100
ErrorDetectionType : Per level 1
Video
ID : 1
Format : MPEG Video
Format version : Version 2
Format profile : Main@Main
Format settings : BVOP
Format settings, BVOP : Yes
Format settings, Matrix : Default
Format settings, GOP : M=3, N=18
Codec ID : V_MPEG2
Codec ID/Info : MPEG 1 or 2 Video
Duration : 1 h 3 min
Bit rate mode : Variable
Bit rate : 3 431 kb/s
Width : 720 pixels
Height : 576 pixels
Display aspect ratio : 4:3
Frame rate mode : Constant
Frame rate : 25.000 FPS
Standard : PAL
Color space : YUV
Chroma subsampling : 4:2:0
Bit depth : 8 bits
Scan type : Progressive
Compression mode : Lossy
Bits/(Pixel*Frame) : 0.331
Time code of first frame : 00:00:00:00
Time code source : Group of pictures header
GOP, Open/Closed : Open
GOP, Open/Closed of first f : Closed
Stream size : 1.52 GiB (93%)
Default : Yes
Forced : No
Audio
ID : 2
Format : MPEG Audio
Format version : Version 1
Format profile : Layer 2
Codec ID : A_MPEG/L2
Codec ID/Hint : MP2
Duration : 1 h 3 min
Bit rate mode : Constant
Bit rate : 192 kb/s
Channel(s) : 2 channels
Sampling rate : 48.0 kHz
Compression mode : Lossy
Stream size : 86.9 MiB (5%)
Default : Yes
Forced : No
[cybertorrent.ru].t134.torrent 
Торрент: Зарегистрирован [ 2019-03-18 10:04 ] · F4181E73D788C6998C97239575D43055052FA9F7

Скачать .torrent

Скачать

17 KB

Статус: проверено
Скачан: 0 раз
Размер: 3,27 GB
terms.php
[Профиль] [ЛС]
Показать сообщения:    
Ответить на тему

Текущее время: 16-Июн 19:50

Часовой пояс: UTC ± 0



Вы не можете начинать темы
Вы не можете отвечать на сообщения
Вы не можете редактировать свои сообщения
Вы не можете удалять свои сообщения
Вы не можете голосовать в опросах
Вы не можете прикреплять файлы к сообщениям
Вы можете скачивать файлы