Орвилл / The Orville / Сезон: 2 / Серии: 1-11 из 15 (Брэннон Брага, Джон Кассар, Джеймс Л. Конуэй) [2018, США, фантастика, драма, комедия, WEB-DLRip] MVO (Greb&Creativ / Amedia) + Original

Ответить на тему
Статистика раздачи
Размер:  6,47 GB   |    Зарегистрирован:  4 месяца 26 дней   |    Скачан:  0 раз

Полного источника не было: Никогда

   
 
Автор Сообщение

Рамфоринх ®

Пол: Не указан

Стаж: 5 месяцев 6 дней

Сообщений: 351

Создавать темы 23-Мар-2019 16:40

[Цитировать]

Орвилл / The Orville
Год выпуска: 2018
Страна: США
Жанр: фантастика, драма, комедия
Продолжительность: 0:48:00
Перевод: Профессиональный (многоголосый закадровый) Greb&Creativ по заказу Amedia
Режиссёр: Брэннон Брага, Джон Кассар, Джеймс Л. Конуэй
В ролях: Сет МакФарлейн, Скотт Граймз, Пенни Джонсон, Питер Макон, Эдрианн Палики, Холстон Сейдж, Ларри Джо Кэмпбелл, Норм МакДональд и др.
Описание: 25 столетие – это время когда, человечеству перестало хватать планеты Земля, как источника еды и ресурсов, необходимых для жизни. К тому же все уголки родной планеты уже давно изучены и хочется чего-то большего – новых открытий, иных рас, необычных изобретений, которые можно будет у них выменять на свои какие-то технические достижения. Поставив за цель, ведущие умы человечества достигают ее. Им удается выйти на связь с другими разумными существами, что обитают во вселенной. Следующий шаг – это построить огромный космический корабль, который поможет покорить космические просторы и изучить все воочию. Проект получает название Орвилл и отдается под руководство молодого капитана Мерсера, у которого сейчас в жизни не самый простой период. Он разлучается с супругой, но не смотря на это не упивается горем, а старается наоборот переключиться на что-то иное и космическое путешествие подходит для этого как нельзя лучше.
Доп. информация: Стар Трек возвращается! Во 2 серии вставлена озвучка AlexFilm на неозвученную речь "червяка-порнушника"
Сэмпл: http://multi-up.com/1219306
Качество: WEB-DLRip
Формат: AVI
Видео: MPEG4, XviD, 720x400 (16:9), 23.976 fps, 1 342 Kbps (0.194 bit/pixel)
Аудио: AC-3, 48.0 KHz, 2 ch, 192 Kbps, CBR - русский
Аудио 2: AC-3, 48.0 KHz, 2 ch, 192 Kbps, CBR - английский
Субтитры: нет
Реклама:
нет

MediaInfo

Общее
Полное имя : M:\2x01 - Джа'Лоджа (Ja'Loja).avi
Формат : AVI
Формат/Информация : Audio Video Interleave
Размер файла : 603 Мбайт
Продолжительность : 48 м. 24 с.
Общий поток : 1741 Кбит/сек
Название фильма : Орвилл. Сезон 2 / Orville. Season 2 (2018)
Программа кодирования : VirtualDubMod 1.5.10.2 (build 2540/release)
Библиотека кодирования : VirtualDubMod build 2540/release
Авторское право : miha2154
Видео
Идентификатор : 0
Формат : MPEG-4 Visual
Профиль формата : Advanced Simple@L5
Настройки формата : BVOP1 / Custom Matrix
Параметр BVOP формата : 1
Параметр QPel формата : Нет
Параметр GMC формата : Без точки перехода
Параметр матрицы формата : Выборочная
Идентификатор кодека : XVID
Идентификатор кодека/Подсказка : XviD
Продолжительность : 48 м. 24 с.
Битрейт : 1342 Кбит/сек
Ширина : 720 пикселей
Высота : 400 пикселей
Соотношение сторон : 16:9
Частота кадров : 23,976 (24000/1001) кадра/сек
Цветовое пространство : YUV
Субдискретизация насыщенности : 4:2:0
Битовая глубина : 8 бит
Тип развёртки : Прогрессивная
Метод сжатия : С потерями
Бит/(Пиксели*Кадры) : 0.194
Размер потока : 465 Мбайт (77%)
Библиотека кодирования : XviD 65
Аудио #1
Идентификатор : 1
Формат : AC-3
Формат/Информация : Audio Coding 3
Коммерческое название : Dolby Digital
Идентификатор кодека : 2000
Продолжительность : 48 м. 24 с.
Вид битрейта : Постоянный
Битрейт : 192 Кбит/сек
Каналы : 2 канала
Channel layout : L R
Частота : 48,0 КГц
Частота кадров : 31,250 кадров/сек (1536 SPF)
Битовая глубина : 16 бит
Метод сжатия : С потерями
Размер потока : 66,5 Мбайт (11%)
Выравнивание : Разделение по промежуткам
Продолжительность промежутка : 42 мс. (1,00 видеокадр)
Время предзагрузки промежутка : 500 мс.
Заголовок : Профессиональный (многоголосый, закадровый) Amedia
ServiceKind/String : Complete Main
Аудио #2
Идентификатор : 2
Формат : AC-3
Формат/Информация : Audio Coding 3
Коммерческое название : Dolby Digital
Идентификатор кодека : 2000
Продолжительность : 48 м. 24 с.
Вид битрейта : Постоянный
Битрейт : 192 Кбит/сек
Каналы : 2 канала
Channel layout : L R
Частота : 48,0 КГц
Частота кадров : 31,250 кадров/сек (1536 SPF)
Битовая глубина : 16 бит
Метод сжатия : С потерями
Размер потока : 66,5 Мбайт (11%)
Выравнивание : Разделение по промежуткам
Продолжительность промежутка : 42 мс. (1,00 видеокадр)
Время предзагрузки промежутка : 500 мс.
Заголовок : Английский
ServiceKind/String : Complete Main

Скриншоты


Предыдущие и альтернативные раздачи

Внимание! Раздача ведётся путём добавления новых серий

Внимание! Раздача ведётся путём добавления новых серий; при каждом добавлении создаётся новый торрент. Чтобы начать докачку новой серии, пользователям необходимо сделать следующее:
(1) остановить скачивание,
(2) удалить старый торрент у себя из клиента (старые серии удалять не надо),
(3) скачать новый торрент и запустить его у себя в клиенте вместо старого, при этом указать клиенту путь в старую папку куда и должно происходить скачивание новых серий.
Ваш клиент при этом должен произвести хеширование (проверку) старой папки (если не производит сам - помогите ему сделать это), и будет докачивать только те серии которых у вас ещё нет. Старые серии при этом не удаляются, а продолжают раздаваться!
Eсли вы уже удалили старые серии, то предотвратить повторную закачку старых серий можно, отжав галочку в соответствующих местах при запуске нового торрента. По возможности, желательно не удалять старые серии как можно дольше чтобы релизёр не столько продолжал раздавать старые серии, а смог сконцентрироваться на новых.
[cybertorrent.ru].t1359.torrent 
Торрент: Зарегистрирован [ 2019-03-23 16:40 ] · 2E90A355A670097FFE8E508276A6B016519ECB41

Скачать .torrent

Скачать

34 KB

Статус: проверено
Скачан: 0 раз
Размер: 6,47 GB
terms.php
[Профиль] [ЛС]
Показать сообщения:    
Ответить на тему

Текущее время: 19-Авг 05:24

Часовой пояс: UTC ± 0



Вы не можете начинать темы
Вы не можете отвечать на сообщения
Вы не можете редактировать свои сообщения
Вы не можете удалять свои сообщения
Вы не можете голосовать в опросах
Вы не можете прикреплять файлы к сообщениям
Вы можете скачивать файлы