Счастливого пути (Александр Баршак) [2008, мелодрама, приключения, WEBRip]

Ответить на тему
Статистика раздачи
Размер:  745 MB   |    Зарегистрирован:  4 месяца 26 дней   |    Скачан:  0 раз

Полного источника не было: Никогда

   
 
Автор Сообщение

Rodin ®

Пол: Не указан

Стаж: 5 месяцев 6 дней

Сообщений: 226

Создавать темы 23-Мар-2019 16:39

[Цитировать]

Счастливого пути
Год выпуска: 2008
Жанр: мелодрама, приключения
Продолжительность: 01:39:35.040 (149376 frames)
Субтитры: нет
Режиссер: Александр Баршак
В ролях: Анна Назарова, Дмитрий Куличков, Александр Пашутин, Людмила Артемьева, Олег Акулич, Павел Баршак, Александр Шатохин, Роман Курцын, Дмитрий Миллер, Лариса Маркина
Описание: Он направляется в Ярославль на заседание суда, и от исхода дела зависит его карьера. Она собирается выступить в Ярославле с концертом. Вот тут и начинается череда неприятностей и приключений: сначала они опаздывают на поезд, затем их такси попадает в аварию, далее свой путь они продолжают в компании растаманов и дальнобойщиков. При этом они пытаются избавиться друг от друга. Но судьба постоянно сводит их вместе, наверное, это неслучайно…
Качество: WEBRip
Формат: AVI
Видео кодек: XviD
Аудио кодек: МР3
Видео: 688x384 (1.79:1), 25 fps, XviD build 73 ~907 kbps avg, 0.14 bit/pixel
Аудио: 48 kHz, MPEG Layer 3, 2 ch, ~128.00 kbps avg

Медиаинфо

General
Complete name : E:\004 Мои раздачи\Счастливого пути 745\schastlivogo_puti_745_by_bm11.avi
Format : AVI
Format/Info : Audio Video Interleave
File size : 745 MiB
Duration : 1h 39mn
Overall bit rate : 1 045 Kbps
Director : bm11
Writing application : VirtualDubMod 1.5.10.3 | www.virtualdub-fr.org || (build 2550/release)
Video
ID : 0
Format : MPEG-4 Visual
Format profile : Advanced Simple@L5
Format settings, BVOP : 1
Format settings, QPel : No
Format settings, GMC : No warppoints
Format settings, Matrix : Custom
Codec ID : XVID
Codec ID/Hint : XviD
Duration : 1h 39mn
Bit rate : 908 Kbps
Width : 688 pixels
Height : 384 pixels
Display aspect ratio : 16:9
Frame rate : 25.000 fps
Color space : YUV
Chroma subsampling : 4:2:0
Bit depth : 8 bits
Scan type : Progressive
Compression mode : Lossy
Bits/(Pixel*Frame) : 0.137
Stream size : 646 MiB (87%)
Writing library : XviD 73
Audio
ID : 1
Format : MPEG Audio
Format version : Version 1
Format profile : Layer 3
Codec ID : 55
Codec ID/Hint : MP3
Duration : 1h 39mn
Bit rate mode : Constant
Bit rate : 128 Kbps
Channel(s) : 2 channels
Sampling rate : 48.0 KHz
Compression mode : Lossy
Stream size : 91.2 MiB (12%)
Alignment : Aligned on interleaves
Interleave, duration : 40 ms (1.00 video frame)
Interleave, preload duratio : 504 ms
Writing library : LAME3.99r
Encoding settings : -m s -V 4 -q 2 -lowpass 17 -b 128
[cybertorrent.ru].t1383.torrent 
Торрент: Зарегистрирован [ 2019-03-23 16:40 ] · 34C4DF6B98754F4854BEF15E4B1974A2C867DE16

Скачать .torrent

Скачать

15 KB

Статус: проверено
Скачан: 0 раз
Размер: 745 MB
terms.php
[Профиль] [ЛС]
Показать сообщения:    
Ответить на тему

Текущее время: 19-Авг 05:25

Часовой пояс: UTC ± 0



Вы не можете начинать темы
Вы не можете отвечать на сообщения
Вы не можете редактировать свои сообщения
Вы не можете удалять свои сообщения
Вы не можете голосовать в опросах
Вы не можете прикреплять файлы к сообщениям
Вы можете скачивать файлы