Флэш / The Flash / Сезон: 5 / Серии: 1-15 из 22 (Дэвид Наттер) [2018, США, фантастика, боевик, драма, приключения, WEBRip] DVO (Gears Media) + Original

Ответить на тему
Статистика раздачи
Размер:  7,79 GB   |    Зарегистрирован:  1 месяц 1 день   |    Скачан:  0 раз

Полного источника не было: Никогда

   
 
Автор Сообщение

Рамфоринх ®

Пол: Не указан

Стаж: 1 месяц 7 дней

Сообщений: 165

Создавать темы 18-Мар-2019 10:02

[Цитировать]

Флэш / The Flash
Год выпуска: 2018
Страна: США
Жанр: Фантастика, боевик, драма, приключения
Продолжительность: ~00:43:00
Перевод: Профессиональный (двухголосый закадровый) Gears Media
Режиссёр: Дэвид Наттер
В ролях: Грант Гастин, Кэндис Паттон, Рик Коснетт, Даниэль Панабэйкер, Карлос Вальдес, Томас Кэвэна, Джесси Л. Мартин, Джон Уэсли Шипп, Стивен Амелл, Ёсиэ Бэнкрофт и др.
Описание: из-за несчастного случая судмедэксперт Барри Аллен приобретает способность передвигаться с невероятной скоростью. Этот случай делает из него супергероя, которым он всегда мечтал стать. Защищая город, как ангел-хранитель, делая невозможное, спасая жизни со скоростью вспышки, по подсказке Оливера Куина (Стрела), он берёт себе и соответствующее имя - Флэш
Ссылка на предыдущие и альтернативные раздачи: http://cybertorrent.ru/forum/tracker.php?nm=The%20Flash
Сэмпл: http://multi-up.com/1212064
Качество: WEBRip
Формат: AVI
Видео: XviD, 720x400 at 23.976 fps, ~1500 kbps avg
Аудио1: Russian, MP3, 48 kHz, 2 ch, 128 kbps
Аудио2: English, MP3, 48 kHz, 2 ch, 128 kbps
Субтитры: нет
Реклама: аудио (два раза, в начале и конце, по 12 сек.)

MediaInfo

Format : AVI
Format/Info : Audio Video Interleave
File size : 536 MiB
Duration : 42 min 22 s
Overall bit rate : 1 767 kb/s
Writing application : Lavf57.29.101
Video
ID : 0
Format : xvid
Codec ID : xvid
Duration : 42 min 22 s
Bit rate : 1 490 kb/s
Width : 720 pixels
Height : 400 pixels
Display aspect ratio : 16:9
Frame rate : 23.976 (24000/1001) FPS
Scan type : Progressive
Bits/(Pixel*Frame) : 0.216
Stream size : 452 MiB (84%)
Audio #1
ID : 1
Format : MPEG Audio
Format version : Version 1
Format profile : Layer 3
Format settings : Joint stereo / MS Stereo
Codec ID : 55
Codec ID/Hint : MP3
Duration : 42 min 22 s
Bit rate mode : Constant
Bit rate : 128 kb/s
Channel(s) : 2 channels
Sampling rate : 48.0 kHz
Compression mode : Lossy
Stream size : 38.8 MiB (7%)
Alignment : Aligned on interleaves
Interleave, duration : 24 ms (0.58 video frame)
Interleave, preload duratio : 72 ms
Title : Gears Media
Writing library : LAME3.99.5
Audio #2
ID : 2
Format : MPEG Audio
Format version : Version 1
Format profile : Layer 3
Format settings : Joint stereo / MS Stereo
Codec ID : 55
Codec ID/Hint : MP3
Duration : 42 min 22 s
Bit rate mode : Constant
Bit rate : 128 kb/s
Channel(s) : 2 channels
Sampling rate : 48.0 kHz
Compression mode : Lossy
Stream size : 38.8 MiB (7%)
Alignment : Aligned on interleaves
Interleave, duration : 24 ms (0.58 video frame)
Interleave, preload duratio : 72 ms
Writing library : LAME3.99.5

Скриншоты

Внимание! Раздача ведётся путём добавления новых серий

Внимание! Раздача ведётся путём добавления новых серий; при каждом добавлении создаётся новый торрент. Чтобы начать докачку новой серии, пользователям необходимо сделать следующее:
(1) остановить скачивание,
(2) удалить старый торрент у себя из клиента (старые серии удалять не надо),
(3) скачать новый торрент и запустить его у себя в клиенте вместо старого, при этом указать клиенту путь в старую папку куда и должно происходить скачивание новых серий.
Ваш клиент при этом должен произвести хеширование (проверку) старой папки (если не производит сам - помогите ему сделать это), и будет докачивать только те серии которых у вас ещё нет. Старые серии при этом не удаляются, а продолжают раздаваться!
Eсли вы уже удалили старые серии, то предотвратить повторную закачку старых серий можно, отжав галочку в соответствующих местах при запуске нового торрента. По возможности, желательно не удалять старые серии как можно дольше чтобы релизёр не столько продолжал раздавать старые серии, а смог сконцентрироваться на новых.

Если ваш рейтинг упадет ниже 0,3, вы не сможете скачивать торренты! Подробнее о рейтинге.

[cybertorrent.ru].t140.torrent 
Торрент: Зарегистрирован [ 2019-03-18 10:04 ] · 018AAE34396B0D62F78E86DE6B51FAE55BDEA2FD

Скачать .torrent

Скачать

41 KB

Статус: проверено
Скачан: 0 раз
Размер: 7,79 GB
terms.php
[Профиль] [ЛС]
Показать сообщения:    
Ответить на тему

Текущее время: 20-Апр 00:23

Часовой пояс: UTC ± 0



Вы не можете начинать темы
Вы не можете отвечать на сообщения
Вы не можете редактировать свои сообщения
Вы не можете удалять свои сообщения
Вы не можете голосовать в опросах
Вы не можете прикреплять файлы к сообщениям
Вы можете скачивать файлы