Персональный покупатель / Personal Shopper (Оливье Ассайас / Olivier Assayas) [2016, Франция, Германия, триллер, драма, детектив, BDRip] MVO (iTunes)

Ответить на тему
Статистика раздачи
Размер:  1,46 GB   |    Зарегистрирован:  4 месяца 25 дней   |    Скачан:  0 раз

Полного источника не было: Никогда

   
 
Автор Сообщение

солнышко ®

Пол: Не указан

Стаж: 5 месяцев 6 дней

Сообщений: 529

Создавать темы 24-Мар-2019 17:09

[Цитировать]

Персональный покупатель
Personal Shopper- Год выпуска: 2016
Страна: Франция, Германия
Жанр: триллер, драма, детектив
Продолжительность: 01:45:12
Перевод: Профессиональный (многоголосый закадровый) - (iTunes)
Субтитры: нет-Режиссер: Оливье Ассайас / Olivier Assayas
В ролях: Кристен Стюарт, Ларс Айдингер, Сигрид Буази, Андерс Даниелсен Лье, Ty Olwin, Хамму Грайа, Нора фон Вальдштеттен, Бенжамин Биолэй, Одри Бонне, Паскаль Рамберт
О фильме: Молодая американка Морин, переехавшая в Париж, помогает знаменитостям подбирать наряды. С миром высокой моды она на ты. Её жизнь кажется мечтой, но всё усложняет паранормальная особенность — Морин умеет общаться с призраками.-Качество: BDRip (источник: PERSONAL_SHOPPER_REMUX_HDCLUB)
Автор: Yugosan
Формат: AVI
Видео: 720x304 (2.37:1), 23.976 fps, XviD build 73 ~1593 kbps avg, 0.30 bit/pixel
Аудио: 48 kHz, AC3 Dolby Digital, 3/2 (L,C,R,l,r) + LFE ch, ~384.00 kbps avg
Скачать: Сэмпл-

скриншоты

-

MI

Код:General
Complete name : G:\Personal.Shopper.2016.BDRip.avi
Format : AVI
Format/Info : Audio Video Interleave
File size : 1.46 GiB
Duration : 1 h 45 min
Overall bit rate : 1 987 kb/s
Writing application : VirtualDubMod 1.5.10.3 | www.virtualdub-fr.org || (build 2550/release)
Writing library : VirtualDubMod build 2550/release
Video
ID : 0
Format : MPEG-4 Visual
Format profile : Advanced Simple@L5
Format settings, BVOP : 1
Format settings, QPel : No
Format settings, GMC : No warppoints
Format settings, Matrix : Default (H.263)
Codec ID : XVID
Codec ID/Hint : XviD
Duration : 1 h 45 min
Bit rate : 1 594 kb/s
Width : 720 pixels
Height : 304 pixels
Display aspect ratio : 2.35:1
Frame rate : 23.976 (24000/1001) FPS
Color space : YUV
Chroma subsampling : 4:2:0
Bit depth : 8 bits
Scan type : Progressive
Compression mode : Lossy
Bits/(Pixel*Frame) : 0.304
Stream size : 1.17 GiB (80%)
Writing library : XviD 73
Audio
ID : 1
Format : AC-3
Format/Info : Audio Coding 3
Format settings, Endianness : Big
Codec ID : 2000
Duration : 1 h 45 min
Bit rate mode : Constant
Bit rate : 384 kb/s
Channel(s) : 6 channels
Channel positions : Front: L C R, Side: L R, LFE
Sampling rate : 48.0 kHz
Frame rate : 31.250 FPS (1536 spf)
Bit depth : 16 bits
Compression mode : Lossy
Stream size : 289 MiB (19%)
Alignment : Split accross interleaves
Interleave, duration : 42 ms (1.00 video frame)
Interleave, preload duration : 500 ms
Service kind : Complete Main
[cybertorrent.ru].t1400.torrent 
Торрент: Зарегистрирован [ 2019-03-24 17:09 ] · C3B0BA9AF1712E4FC923246D0E94847FB39A9F36

Скачать .torrent

Скачать

15 KB

Статус: проверено
Скачан: 0 раз
Размер: 1,46 GB
terms.php
[Профиль] [ЛС]
Показать сообщения:    
Ответить на тему

Текущее время: 19-Авг 06:16

Часовой пояс: UTC ± 0



Вы не можете начинать темы
Вы не можете отвечать на сообщения
Вы не можете редактировать свои сообщения
Вы не можете удалять свои сообщения
Вы не можете голосовать в опросах
Вы не можете прикреплять файлы к сообщениям
Вы можете скачивать файлы